<?xml version="1.0" standalone="no"?>
<!DOCTYPE svg PUBLIC "-//W3C//DTD SVG 1.1//EN" "http://www.w3.org/Graphics/SVG/1.1/DTD/svg11.dtd" >
<svg xmlns="http://www.w3.org/2000/svg">
<metadata>
This is a custom SVG webfont generated by Font Squirrel.
Copyright   : 2002 Fredrick Nader All rights reserved apostropheapostrophiclabcom
Designer    : Fredrick Nader
Foundry     : F M Nader
Foundry URL : mailtoapostropheapostrophiclabcom
</metadata>
<defs>
<font id="DayRomanRegular" horiz-adv-x="983" >
<font-face units-per-em="2048" ascent="1638" descent="-410" />
<missing-glyph horiz-adv-x="583" />
<glyph unicode=" "  horiz-adv-x="583" />
<glyph unicode="&#x09;" horiz-adv-x="583" />
<glyph unicode="&#xa0;" horiz-adv-x="583" />
<glyph unicode="!" horiz-adv-x="495" d="M119 94q0 53 35.5 91t89.5 38q49 0 86 -41t37 -90q0 -57 -40 -90t-94 -33q-49 0 -81.5 39t-32.5 86zM127 1434q-2 31 4 41t21.5 11t40 -3t61.5 -4q31 0 55.5 3t42.5 3q23 0 33 -9.5t6 -41.5q-8 -76 -23.5 -202t-33 -267.5t-35.5 -281.5t-35 -243q-2 -10 -17.5 -8t-23.5 8 q-10 111 -24.5 239t-29.5 259t-26.5 259t-15.5 237z" />
<glyph unicode="&#x22;" horiz-adv-x="608" d="M76 1456q-2 18 3 26.5t27 8.5h48q12 0 26.5 -1t38.5 -1q16 6 23.5 -9.5t3.5 -25.5q-4 -23 -11.5 -81t-14.5 -122.5t-15 -119t-15 -66.5q-4 -10 -14 -14t-21.5 -3t-21.5 8t-12 19l-12 80q-8 53 -15.5 110.5t-12.5 109.5t-5 81zM365 1456q-2 18 3 26.5t27 8.5h47 q12 0 26.5 -1t39.5 -1q16 6 23.5 -9.5t3.5 -25.5q-4 -23 -11.5 -81t-14.5 -122.5t-15.5 -119t-14.5 -66.5q-4 -10 -14 -14t-21.5 -3t-21.5 8t-12 19l-13 80q-8 53 -15 110.5t-12 109.5t-5 81z" />
<glyph unicode="#" horiz-adv-x="1048" d="M78 412q0 12 5 30.5t7 30.5q37 0 91.5 1t119.5 1q10 49 20.5 96t20.5 99h-162q-23 35 -24.5 60.5t24.5 70.5q47 0 93 -1t94 -1q12 68 25.5 148.5t29.5 180.5q20 6 57 7q16 0 31.5 -1t26.5 -4q-10 -86 -25.5 -167.5t-34.5 -163.5q53 0 100.5 -1t94.5 -1q12 70 25.5 148.5 t29.5 182.5q20 6 57 7q16 0 31.5 -1t26.5 -4q-10 -86 -25.5 -166.5t-34.5 -166.5h197q4 -20 4 -31v-29q0 -16 -1 -35.5t-11 -31.5q-20 2 -43 2h-47h-125q-14 -66 -23.5 -112t-19.5 -85h178q27 -37 21.5 -66.5t-21.5 -64.5q-45 -2 -97.5 -3t-107.5 -1q-12 -59 -24.5 -134 t-32.5 -202q-10 0 -36 -2t-77 2q18 104 33.5 185t30.5 151h-199q-12 -59 -24.5 -134t-32.5 -202q-10 0 -36 -2t-77 2q18 104 33.5 185t29.5 153q-55 0 -102 1t-84 3q0 18 -5 33t-5 33zM408 475h198q10 49 20.5 97.5t20.5 99.5q-43 0 -92 -1t-104 -1q-14 -63 -23.5 -109.5 t-19.5 -85.5z" />
<glyph unicode="$" horiz-adv-x="1067" d="M94 1104q0 90 30 162.5t83 125t124.5 83t155.5 38.5v121q12 4 17 4h18q10 0 22.5 -1t20.5 -9q-2 -12 -2 -26v-27v-31q0 -14 -2 -31q41 -4 89 -24.5t83 -40.5q23 -12 34 -1t21.5 31.5t25.5 39t46 18.5q14 0 18.5 -20.5t4.5 -49.5t-3 -59.5t-3 -52.5q2 -106 -7 -213 q-4 -18 -10 -24.5t-14 -6.5t-16.5 2t-14.5 2q-12 0 -20.5 18.5t-14.5 44t-12 53t-18 48.5q-29 68 -80.5 108.5t-108.5 51.5v-561q59 -31 119.5 -61t110.5 -60q86 -57 134 -149.5t50 -196.5q0 -205 -113.5 -319t-298.5 -134q-2 -20 -2 -37v-35v-30q0 -16 -2 -31h-41 q-25 0 -31 2q-2 12 -2 27v30v68q-39 0 -72.5 10t-62 21.5t-54.5 21.5t-46 10q-25 0 -36 -13t-21.5 -30.5t-24.5 -31t-45 -13.5q-14 0 -18.5 25.5t-4.5 60.5t3 72t3 59q0 53 1.5 96.5t5.5 96.5q2 18 9 24.5t15 6.5t15.5 -2.5t13.5 -2.5q14 0 22.5 -17t14.5 -43t13 -54.5 t17 -48.5q33 -76 104 -119t148 -49v633q-72 39 -141.5 78.5t-124.5 90t-90 116t-35 155.5zM262 1202q0 -96 65.5 -163.5t157.5 -120.5q0 154 1 282.5t1 239.5q-94 -12 -159.5 -73t-65.5 -165zM563 35q104 16 170 88t64 188q-2 111 -68.5 181.5t-165.5 128.5v-586z" />
<glyph unicode="%" horiz-adv-x="1597" d="M92 1130q0 70 23.5 131.5t66.5 107.5t102.5 72.5t131.5 26.5q66 0 125 -24.5t104 -67.5t71.5 -102.5t26.5 -126.5q0 -70 -23.5 -131.5t-66.5 -107.5t-102 -73.5t-131 -27.5q-74 0 -134.5 22.5t-103.5 65.5t-66.5 102t-23.5 133zM227 72q248 332 502 651t500 657 q23 0 56.5 -22.5t55.5 -34.5q-57 -86 -120.5 -167t-128.5 -163q-193 -246 -383.5 -485.5t-370.5 -493.5q-10 4 -37 23t-74 35zM242 1141q-4 -104 49 -156.5t129 -52.5q68 0 124 49t58 145q0 100 -54 160t-132 60q-63 0 -117.5 -56.5t-56.5 -148.5zM844 301q0 70 23.5 131.5 t66.5 107.5t102.5 72.5t130.5 26.5q66 0 125.5 -24.5t104.5 -67.5t71.5 -102.5t26.5 -127.5q0 -70 -23.5 -131t-66.5 -107t-102.5 -74t-131.5 -28q-74 0 -134 23t-103 66t-66.5 102t-23.5 133zM993 311q-4 -104 49.5 -156.5t128.5 -52.5q68 0 124.5 49.5t58.5 145.5 q0 100 -54.5 159.5t-132.5 59.5q-63 0 -117.5 -56.5t-56.5 -148.5z" />
<glyph unicode="&#x26;" horiz-adv-x="1622" d="M123 313v39q0 106 61.5 189.5t147.5 138.5q35 23 81 44t74 50q-4 6 -22 21q-49 43 -91 109.5t-42 133.5q0 61 22.5 114.5t60.5 93.5t91 63.5t115 23.5q63 0 120.5 -12t100.5 -40t68.5 -73t25.5 -110q0 -49 -21.5 -90t-56.5 -75t-77 -60.5t-81 -45.5q18 -16 38 -29.5 t40 -29.5q39 -31 78 -70t77 -81t74.5 -83.5t69.5 -78.5q8 4 13.5 11t9.5 13q20 27 44.5 55.5t44 57.5t33 59.5t13.5 63.5q0 39 -10.5 52t-21.5 17t-21.5 9.5t-10.5 29.5q0 8 16.5 12.5t31.5 4.5h133q45 0 90 4t92 4q12 0 22.5 -7t10.5 -22q0 -14 -10.5 -21t-23.5 -11.5 t-29.5 -5.5t-28.5 -1q-29 0 -62 -26.5t-63.5 -61.5t-54 -68.5t-35.5 -50.5q-35 -45 -72 -94t-72 -92q39 -55 81 -107.5t88 -93.5t98.5 -68.5t113.5 -33.5q14 -6 31.5 -11t29 -13.5t12.5 -21.5t-14 -36q-12 -4 -31.5 -7t-41 -4t-42 -2t-34.5 -1q-98 0 -161.5 29.5 t-106.5 70.5t-75 85t-65 73q-2 -2 -3 -4t-3 -4q-23 -35 -57.5 -73t-75.5 -74t-84 -65.5t-80 -43.5q-80 -33 -180 -33q-66 0 -121 14q-61 14 -112.5 47t-86 79t-54 103.5t-19.5 120.5zM299 395q0 -66 24.5 -121t67.5 -96t99.5 -64.5t121.5 -23.5q98 0 168 41t135 109 q14 14 25.5 31.5t24.5 33.5q-12 31 -35 55.5t-45 53.5q-74 92 -161 171t-185 144q-104 -41 -172 -129t-68 -205zM473 1112q0 -43 19 -82q8 -20 27.5 -46t44 -50.5t50 -45t43.5 -30.5q10 4 17.5 9t15.5 10q53 37 82 95t29 124q0 78 -42 130t-124 52q-72 0 -117 -47t-45 -119z " />
<glyph unicode="'" horiz-adv-x="319" d="M76 1456q-2 18 3 26.5t27 8.5h48q12 0 26.5 -1t38.5 -1q16 6 23.5 -9.5t3.5 -25.5q-4 -23 -11.5 -81t-14.5 -122.5t-15 -119t-15 -66.5q-4 -10 -14 -14t-21.5 -3t-21.5 8t-12 19l-12 80q-8 53 -15.5 110.5t-12.5 109.5t-5 81z" />
<glyph unicode="(" horiz-adv-x="722" d="M119 518q0 117 24.5 235.5t70.5 232.5t111.5 216.5t147.5 186.5q8 10 26.5 28.5t40 37t42 32.5t32.5 16q23 -12 35 -35q-2 -12 -14 -24q-74 -74 -123 -144q-117 -168 -177.5 -362.5t-60.5 -398.5q0 -74 8.5 -155t26 -162t44 -156.5t63.5 -139.5q45 -82 92 -166t121 -145 q14 -18 8 -39.5t-29 -21.5q-18 0 -47 24.5t-41 36.5q-186 190 -293.5 411.5t-107.5 491.5z" />
<glyph unicode=")" horiz-adv-x="722" d="M61 -403q68 80 132.5 163.5t111.5 178.5q70 135 101.5 283.5t31.5 301.5q0 98 -13 201.5t-41 204t-71 195t-100 173.5q-57 80 -90 112t-49 54q-4 8 9 25.5t23 17.5q6 0 18.5 -7t25 -17t23.5 -19.5t17 -15.5q186 -186 295 -413.5t109 -495.5q0 -178 -54.5 -351.5 t-146.5 -320.5q-25 -41 -56.5 -85t-69.5 -87t-79 -80t-82 -61q-37 10 -45 43z" />
<glyph unicode="*" horiz-adv-x="1064" d="M54 1130.5q-5 8.5 5 28.5q6 14 9.5 20.5t5.5 12.5t6 15.5t14 31.5q2 20 17 21q16 0 26 -11q18 -12 69.5 -39.5t108 -59.5t103.5 -59.5t55 -37.5q14 -16 6 -34t-35 -11q-25 6 -76 19t-107 29.5t-108.5 32t-76.5 27.5q-17 6 -22 14.5zM172 686q0 10 14 25q18 20 57.5 57 t82.5 75t84 71.5t63 50.5q20 18 34.5 7t6.5 -34q-4 -12 -33.5 -57t-66.5 -98.5t-71 -101.5t-46 -67q-4 -10 -18.5 -16t-24.5 10q-18 14 -25.5 20.5t-12.5 10.5t-10 9t-18 16q-16 16 -16 22zM451 1460q2 16 7 25.5t27 9.5h37q6 0 16.5 -1t32.5 -1q18 4 24.5 -10.5t2.5 -24.5 q-4 -23 -9 -81t-11.5 -121.5t-13.5 -118t-13 -66.5q-8 -20 -27 -20q-16 0 -20 28q-6 27 -14.5 79t-16.5 109.5t-14 110.5t-8 82zM559 940q-12 23 1 35t32 0q12 -4 52 -43t85 -86t85 -90t54 -56q10 -8 13.5 -22t-13.5 -21q-18 -16 -26 -24t-14 -12l-10 -9q-5 -4 -17 -12 q-27 -20 -51 8q-14 23 -41 69t-56.5 96t-55.5 96t-38 71zM580.5 1027q-7.5 17 5.5 32q8 10 56 37.5t105.5 59.5t109.5 60.5t69 40.5q10 4 24.5 3.5t16.5 -19.5q10 -20 14 -30.5t7 -16.5l6 -12q3 -6 10 -21q10 -20 2.5 -27.5t-23.5 -13.5q-27 -10 -78 -24.5t-107.5 -29.5 t-107.5 -28.5t-78 -19.5q-24 -8 -31.5 9z" />
<glyph unicode="+" d="M74 504.5q-2 25.5 24 70.5q43 -2 84 -2h82h158v326q35 23 60.5 25t70.5 -25q-2 -43 -2 -86v-82v-160h346q4 -20 4 -30v-29q0 -16 -1 -35.5t-11 -32.5q-53 4 -132 3t-208 -1v-346q-20 -4 -31 -4h-29q-16 0 -35.5 1t-31.5 12q4 53 3 130.5t-1 204.5h-326q-22 35 -24 60.5z " />
<glyph unicode="," horiz-adv-x="528" d="M106 109q0 31 13.5 52t35 34.5t47 19.5t52.5 6q43 0 77 -23.5t56.5 -59.5t34.5 -78t12 -78q0 -72 -31.5 -135.5t-83.5 -112.5q-39 -39 -91 -73t-93 -40q-10 -2 -20.5 10.5t-8.5 22.5q4 14 36 33.5t68 49.5t65.5 69.5t29.5 93.5q0 33 -8 50t-23.5 26.5t-36 15.5t-44.5 16 q-35 16 -61 38t-26 63z" />
<glyph unicode="-" horiz-adv-x="772" d="M95 481.5q1 20.5 1 73.5q0 10 31 12t59 2h35q117 0 233.5 -2t233.5 4q12 0 12 -36v-82q0 -10 -21.5 -13.5t-45.5 -3.5h-463q-25 0 -49.5 2t-24.5 8q-2 15 -1 35.5z" />
<glyph unicode="." horiz-adv-x="514" d="M115 92q0 55 37.5 91t91.5 36q57 0 87.5 -39t30.5 -92t-34.5 -86t-87.5 -33t-89 34t-36 89z" />
<glyph unicode="/" horiz-adv-x="774" d="M41 -61q141 391 286.5 772t276.5 776q20 6 58 6q16 0 31.5 -1t25.5 -3q-29 -100 -66 -195.5t-73 -193.5q-111 -293 -219.5 -578.5t-206.5 -582.5q-10 0 -36 -2t-77 2z" />
<glyph unicode="0" horiz-adv-x="1183" d="M102 442q0 104 36 196.5t100.5 161t153.5 109.5t196 41q100 0 189 -36.5t156.5 -101t107.5 -154t40 -191.5q0 -104 -35.5 -197.5t-99 -163t-154 -110.5t-196.5 -41q-109 0 -200 35t-156.5 99.5t-101.5 153t-36 199.5zM281 453q-2 -72 14 -139.5t54 -121t98.5 -86 t146.5 -34.5q82 -2 140.5 29.5t96 84t57 118t21.5 132.5q0 70 -17.5 140.5t-55 128t-100 93.5t-150.5 36q-78 2 -135.5 -33t-94.5 -90.5t-55 -123.5t-20 -134z" />
<glyph unicode="1" horiz-adv-x="745" d="M72 20q0 18 20.5 25.5t48 12.5t58 12.5t51.5 25.5q20 16 25.5 58.5t5.5 81.5v43l2 145q0 53 1 104.5t1 102.5v39q0 35 -6.5 75.5t-18.5 57.5q-23 23 -53.5 28t-59 7t-48 10t-19.5 37q0 20 19.5 23t35.5 3h23q59 0 104 -6t105 -6q29 0 59.5 3t58.5 3h179q12 -12 12 -22 q0 -29 -21.5 -35t-50.5 -6q-55 0 -86 -10.5t-45 -29t-16 -47t-2 -65.5q0 -117 -3 -231.5t-3 -231.5v-28v28v-49v21q2 -29 8 -59.5t26 -49.5q18 -16 50 -22.5t62 -11.5t52.5 -11t22.5 -25q0 -31 -30 -33.5t-60 -2.5q-57 0 -114.5 6t-115.5 6q-31 0 -53.5 -2t-41.5 -5t-42 -5 t-53 -2h-29q-20 0 -39.5 6.5t-19.5 31.5z" />
<glyph unicode="2" horiz-adv-x="933" d="M94 725q0 8 7.5 23.5t18.5 31t21.5 29.5t16.5 20q41 45 75.5 69t66.5 34t61.5 12t60.5 2q147 0 215 -93t25 -247q-10 -41 -40 -93t-70 -108.5t-85 -110.5t-86 -98t-71.5 -74t-41.5 -36q27 -12 89.5 -16t131 -1t127 15t74.5 33q20 27 44 59.5t45.5 63t38 54t20.5 30.5 q16 23 39.5 13.5t31.5 -28.5q-51 -82 -70.5 -146.5t-25.5 -107.5t-8 -65.5t-19 -20.5q-57 4 -143 17.5t-215 17.5q-53 0 -119.5 -1t-120.5 -1q-8 0 -21 -17.5t-22 -13.5q-20 0 -30.5 8.5t-10.5 34.5q0 10 11 21q57 63 114.5 137t107.5 147.5t89 142t61 124.5q43 113 0 178 t-147 65q-63 0 -99 -17t-56.5 -40.5t-32 -44t-23.5 -27.5q-12 -6 -23.5 2.5t-11.5 22.5z" />
<glyph unicode="3" horiz-adv-x="833" d="M84 758q-2 27 23.5 59.5t66.5 61t91 49t97 20.5q49 0 95.5 -12t83.5 -40t59.5 -71t22.5 -106q0 -43 -29 -97.5t-69 -104.5t-83 -92t-71 -63q90 8 162.5 -15t123 -71.5t77 -116t26.5 -145.5q0 -117 -61.5 -222t-155.5 -185t-208 -127t-220 -49q-12 0 -17.5 7t-4.5 16 t6 16.5t14 7.5q94 27 180 68.5t150.5 100t102.5 134.5t38 170q0 49 -14.5 98t-41 91t-66.5 71t-91 39q-41 8 -86 12t-88 -18q-14 -6 -40 -23.5t-36 -17.5q-31 0 -31 35q0 18 27.5 31.5t40.5 19.5q45 25 99 64.5t102.5 90t80 106.5t31.5 112q0 98 -49 145t-115 47t-105.5 -33 t-86.5 -86q-8 -8 -18.5 1.5t-12.5 21.5z" />
<glyph unicode="4" horiz-adv-x="1183" d="M20.5 9.5q-8.5 17.5 4.5 33.5q25 37 63.5 92t84.5 118.5t96 132.5t96.5 131.5t86.5 115.5t66 86q29 37 41 57.5t21.5 37.5t20.5 37.5t38 59.5q14 20 42 28.5t56 8.5q29 0 49.5 -10t18.5 -27q0 -6 2 -26.5t2 -91.5v-650q0 -29 43 -28h98q43 0 82 1t58 1q29 0 49 -20.5 t20 -49.5q0 -43 -43 -43q-25 0 -49.5 2t-50.5 2h-39q-37 0 -67.5 1t-52 -2t-34 -13t-12.5 -33v-407q0 -16 -1 -32t5 -32q-4 -33 -34.5 -46t-65.5 -13q-29 0 -51.5 8t-22.5 20q4 35 5 90.5t1 112.5v186q0 14 1 33t1 37q0 43 -14 62.5t-35.5 25.5t-47.5 4t-48 -2 q-117 0 -229.5 -8t-229.5 -8q-16 0 -24.5 17.5zM195 137q0 -16 14 -21t27 -5q20 0 73 2t112.5 3t109 3t61.5 2q41 0 49 11t8 38v117q0 70 -1 149.5t-1 161.5v154q-78 -104 -182.5 -235.5t-214.5 -287.5q-12 -18 -33.5 -43.5t-21.5 -48.5z" />
<glyph unicode="5" horiz-adv-x="997" d="M61 317q0 35 19.5 66t25.5 47q14 39 34 96.5t38.5 121t32.5 125t18 106.5q2 10 6.5 19t18.5 9q20 2 62 1t100.5 -2t130 0t153.5 7l105 189q10 14 25 8l26 -10q6 -6 4 -24.5t-9 -46.5t-17.5 -63.5t-18.5 -76.5q-6 -20 -13 -43t-20.5 -42.5t-35 -31.5t-54.5 -12h-86h-121 q-63 0 -114.5 -3t-61.5 -9q-16 0 -32.5 -41t-32 -93.5t-28.5 -102.5t-26 -71q31 14 68 37t85 42.5t107.5 30.5t133.5 1q90 -14 156.5 -56t108.5 -103.5t58.5 -140.5t5.5 -167q-16 -137 -94 -252t-188 -197q-41 -31 -60 -30q-18 0 -43 33q-6 6 19.5 30.5t62.5 69.5t74 113.5 t51 166.5q10 78 7 138.5t-25.5 106.5t-66.5 82t-115 65q-27 10 -72 7t-94.5 -14.5t-94.5 -29t-69 -33.5q-16 -6 -25.5 -20.5t-21 -26.5t-29.5 -17.5t-49 7.5q-19 14 -19 34z" />
<glyph unicode="6" horiz-adv-x="1171" d="M113 535q0 162 52 308t144 271t215 224.5t264 164.5q23 10 52.5 22.5t52.5 14.5q10 -6 21.5 -16.5t11.5 -24.5q0 -10 -15.5 -22.5t-35 -22.5t-40 -19.5t-28.5 -13.5q-35 -20 -66.5 -43.5t-62.5 -50.5q-135 -117 -222 -269.5t-124 -326.5q25 25 60.5 51.5t78.5 49t93 37 t106 14.5q88 0 159.5 -32t121.5 -87t77 -131t27 -164q0 -96 -33 -185t-91.5 -159t-140 -111t-182.5 -41q-98 0 -196 41q-80 35 -136.5 89.5t-92.5 123t-53 147.5t-17 161zM305 489q0 -72 13.5 -150.5t46 -146t90 -111.5t145.5 -44q76 0 128 37t85 94t47 125.5t14 132.5 q0 68 -16 133.5t-50 116.5t-88 83t-130 32q-43 0 -84 -17.5t-77 -42t-65.5 -52.5t-48.5 -50q-4 -39 -7 -70t-3 -70z" />
<glyph unicode="7" horiz-adv-x="989" d="M31 774q18 49 32.5 101.5t26.5 95.5t23.5 70.5t21.5 27.5t27.5 -4t17.5 -21q-2 -39 -1 -70.5t-1 -66.5l80 -2h164h82q43 0 84 2q66 2 132 5t132 3h27q23 0 46 -7t23 -29q0 -6 -11 -34t-29.5 -67t-39 -85t-41 -88t-36 -74.5t-21.5 -45.5q-123 -270 -243.5 -532 t-268.5 -520q-6 -10 -22.5 -9t-33 9t-26.5 20t-6 23q98 203 194.5 397.5t194.5 396.5q47 104 95 204.5t89 205.5l5 20q2 10 2 21q0 20 -19.5 23.5t-34.5 3.5h-622q-18 0 -33.5 5t-9.5 21z" />
<glyph unicode="8" horiz-adv-x="1015" d="M98 309q-2 63 18.5 116.5t57.5 98.5t84 81t98 65l43 24q-10 10 -20 17.5t-21 15.5q-47 31 -93 65.5t-82 76.5t-59.5 91.5t-25.5 110.5q-2 88 32 158.5t91.5 121t133 77t157.5 26.5q74 0 145.5 -21.5t128 -62.5t92 -103.5t37.5 -142.5q2 -74 -22.5 -128t-66.5 -94 t-97 -71.5t-113 -60.5q12 -10 27 -18l29 -17q47 -29 93 -66.5t82 -83.5t58.5 -99.5t22.5 -112.5q2 -84 -29 -157t-85 -127t-128 -85t-156 -31q-80 0 -156.5 17.5t-137 56.5t-98.5 103.5t-40 158.5zM252 340q2 -59 15.5 -113.5t41 -96.5t71.5 -67.5t107 -25.5q41 0 76 4 t74 22q72 35 100.5 97.5t24.5 140.5q-2 72 -27.5 129t-66.5 100t-95.5 76t-113.5 56q-100 -39 -155.5 -127.5t-51.5 -194.5zM252 1143q2 -78 51 -150q16 -23 47 -52.5t67 -58t71.5 -50t64.5 -27.5q49 14 88 47t65.5 75t41 91t14.5 96q-2 57 -21.5 109.5t-53.5 90.5t-83 60.5 t-110 22.5q-109 0 -175.5 -72.5t-66.5 -181.5z" />
<glyph unicode="9" horiz-adv-x="1171" d="M113 414q0 96 32.5 185t91 158.5t140.5 110.5t182 41q98 0 197 -41q80 -35 136 -89t92 -122.5t53.5 -147.5t17.5 -161q0 -162 -46 -302t-123 -252.5t-179.5 -195.5t-212.5 -128q-23 -10 -52.5 -22.5t-52.5 -14.5q-10 6 -21.5 16t-11.5 25q0 6 25 22.5t57 35.5l66 39 q33 19 49 34q123 106 184.5 240.5t98.5 306.5q-25 -25 -61 -51.5t-79 -49t-93 -37t-105 -14.5q-90 0 -161 31.5t-121 87t-76.5 131.5t-26.5 164zM293 457q0 -68 16.5 -133.5t50 -116.5t88 -83t130.5 -32q43 0 83.5 17.5t76.5 42t66 52t48 50.5q4 39 7 69.5t3 69.5 q0 70 -13 150t-46 147.5t-90.5 111.5t-145.5 44q-76 0 -128 -37t-84.5 -94.5t-47 -126t-14.5 -131.5z" />
<glyph unicode=":" horiz-adv-x="526" d="M115 102q0 53 37.5 89t91.5 36q49 0 90 -36.5t41 -88.5q0 -53 -39 -96t-94 -43q-27 0 -50.5 12.5t-40 32t-26.5 43.5t-10 51zM117 817q0 47 36.5 86t84.5 39q53 0 95 -39t42 -92q0 -55 -40 -94t-95 -39q-8 0 -11 2q-23 2 -43 15.5t-35.5 33t-24.5 42.5t-9 46z" />
<glyph unicode=";" horiz-adv-x="528" d="M104 104q0 55 47.5 86t96.5 31t84 -22.5t58.5 -58.5t33.5 -79t10 -86q0 -76 -29.5 -136t-85.5 -109q-10 -8 -34.5 -25.5t-52 -36t-53 -32t-38.5 -13.5q-14 0 -16 15q-10 4 -10 18q0 2 7 9t15 14.5t16.5 13.5t12.5 8q31 20 56.5 40.5t44 44.5t28.5 53.5t10 70.5 q0 37 -15.5 54.5t-39 26.5t-50 15t-48.5 21q-48 28 -48 77zM145 809q0 57 34 93t91 36q49 0 85 -40t36 -87q0 -55 -38 -94t-93 -39q-6 0 -8 2q-51 4 -79 43t-28 86z" />
<glyph unicode="&#x3c;" horiz-adv-x="937" d="M100 395v127q86 49 150.5 89t118 76t101.5 70t100.5 67.5t115 71.5t145.5 83q0 -18 2.5 -26.5t4.5 -14.5t4 -13t2 -26q-94 -70 -167 -125t-137.5 -106.5t-128 -100.5t-139.5 -106q98 -76 168 -129t133.5 -98.5t130 -91.5t158.5 -109q0 -18 -3 -26.5t-7 -15.5t-7 -15.5 t-3 -26.5q-119 61 -202 109t-162 97.5t-166 105.5t-212 134z" />
<glyph unicode="=" horiz-adv-x="1048" d="M98 672.5q-2 25.5 25 70.5q188 0 359 -2t296 -2h144q4 -20 4 -30v-29q0 -16 -1 -35.5t-12 -32.5q-23 2 -49 2h-55h-154q-92 0 -222 -1t-310 -1q-23 35 -25 60.5zM102 354q0 12 5.5 30.5t7.5 31.5q43 0 98 1t147 1h555q27 -37 22 -66.5t-22 -64.5q-43 -2 -92 -2h-106h-223 q-111 0 -212.5 1t-168.5 3q0 18 -5.5 32.5t-5.5 32.5z" />
<glyph unicode="&#x3e;" horiz-adv-x="937" d="M96 33q92 63 160 112.5t131.5 95.5t133 98t165.5 122q-78 57 -140.5 106t-127 99.5t-137 106.5t-166.5 126q0 18 2 25.5t4 13.5t4 14.5t2 26.5q125 -68 207 -120t154.5 -102t156.5 -105.5t213 -129.5v-127q-84 -51 -149.5 -93t-122 -78t-107.5 -67.5t-105.5 -64.5 t-116.5 -67.5t-140 -75.5q0 18 -3 26.5t-7.5 15.5t-7.5 15.5t-3 26.5z" />
<glyph unicode="?" horiz-adv-x="735" d="M76 1386q0 31 12 49.5t32.5 30t45 14.5t49.5 3q86 0 166 -52.5t141.5 -130t97 -170t35.5 -172.5q0 -78 -26.5 -131t-66.5 -91t-88 -64.5t-92 -50t-77 -49t-43 -62.5q-8 -6 -8 -33v-53q0 -27 -7 -50.5t-30 -25.5q-27 6 -29 33q-2 8 -3 17.5t-1 21.5v53q0 29 1 53.5t1 40.5 q0 39 -2 67t-1 48t6.5 33.5t19.5 23.5q55 23 112.5 50.5t105.5 65.5t78 89t30 123q0 49 -17.5 96t-48.5 85t-74 61.5t-94 23.5q-35 0 -69.5 -12t-69.5 -12t-60.5 21t-25.5 56zM119 88q0 51 30.5 85t83.5 34q51 0 83 -40t32 -87q0 -51 -40 -86t-91 -25q-47 4 -72.5 39 t-25.5 80z" />
<glyph unicode="@" horiz-adv-x="1796" d="M123 473q0 160 66.5 306.5t183.5 256.5q117 111 263 165t306 54q100 0 201.5 -25.5t190.5 -76.5t162 -125t116 -170q29 -63 45 -129.5t16 -136.5q0 -90 -27.5 -183.5t-77.5 -174t-124 -139t-166 -77.5q-10 -2 -22.5 -3t-22.5 -1q-68 0 -107 43t-55 105h-2 q-23 -31 -56.5 -59.5t-74.5 -52t-85 -37t-85 -13.5q-104 0 -146 57.5t-42 149.5q0 45 23.5 83t59 68.5t77.5 53t79 37.5q72 27 130.5 46t131.5 37v150q0 86 -31.5 139t-123.5 53q-61 0 -98 -19t-58.5 -46t-30 -53.5t-12.5 -40.5q-10 -33 -43 -56.5t-72 -23.5 q-23 0 -26.5 19.5t-3.5 35.5q0 49 41 99.5t100 92.5t129 68.5t127 26.5q14 0 35.5 -3t44 -7t43 -10.5t33.5 -12.5q68 -35 84 -91t16 -126q0 -86 -2 -171t-2 -171v-59q0 -47 3 -95.5t13 -64.5q8 -14 24.5 -19.5t33.5 -5.5q61 0 109 49.5t82 119t51.5 143t17.5 122.5 q0 129 -50.5 238t-136.5 186.5t-198.5 120.5t-237.5 43q-152 0 -273.5 -58t-207.5 -156.5t-132 -229.5t-46 -275q0 -141 45 -257.5t127 -209.5q94 -100 220 -155t279 -55q57 0 126 11t135.5 34.5t126 57.5t98.5 79q23 -6 46 -12.5t46 -10.5q-119 -129 -268.5 -195.5 t-323.5 -66.5q-127 0 -246 36t-220 103.5t-180 162.5t-124 216q-27 70 -37 143.5t-10 147.5zM745 238q0 -57 27 -91t92 -34q43 0 87 21.5t73 51.5q12 14 29.5 41t23.5 49l4 72v58q0 16 -1 30.5t-3 24.5q-18 -4 -42.5 -11.5t-50.5 -16.5t-49.5 -18t-41.5 -16 q-55 -20 -101.5 -59t-46.5 -102z" />
<glyph unicode="A" horiz-adv-x="1593" d="M20 23q0 27 16.5 35t40 12t49.5 12t44 37q6 8 18.5 35.5t25.5 58.5t24.5 60.5t17.5 43.5q43 111 87 218.5t89 218.5q76 186 151.5 370.5t151.5 370.5q4 12 9.5 19.5t21.5 7.5q14 0 22.5 -11.5t12.5 -21.5q47 -117 96 -238t96 -237q86 -223 180.5 -442.5t198.5 -436.5 q18 -39 52 -51t67 -18.5t57.5 -13.5t24.5 -34q0 -18 -21.5 -25t-42.5 -7h-22q-49 0 -98.5 6t-98.5 6q-72 0 -142.5 -6t-141.5 -6q-18 0 -33 12t-15 31q0 23 29 26.5t64.5 5.5t64.5 10.5t29 43.5q0 6 -2 13t-4 13q-6 20 -22.5 62.5t-39 99.5t-51.5 127t-59 143 q-10 20 -17.5 37t-11.5 21q-16 16 -49 19t-68 3h-39q-25 0 -64.5 1t-82.5 1q-41 0 -81 -2t-67 -8q-37 -86 -68.5 -171t-54 -154.5t-36 -116.5t-13.5 -58q0 -43 33 -55t73 -16t72.5 -11.5t32.5 -37.5q0 -16 -12 -27.5t-29 -11.5q-66 0 -133 7t-133 7q-47 0 -85 -5t-85 -5 q-14 0 -21.5 10.5t-7.5 22.5zM526 739h56q35 0 105.5 1t199.5 1q0 2 7 3t11 4q-27 72 -55.5 152.5t-53 151t-42 120t-23.5 57.5q-29 -66 -49 -114t-40.5 -99t-47.5 -115t-68 -162z" />
<glyph unicode="B" horiz-adv-x="1411" d="M72 27q0 20 31.5 25t70.5 11.5t74 20.5t41 49q2 4 4 65.5t3 159t3 219t3 248.5t1 248v213q0 39 -8 62.5t-24.5 36t-42 17.5t-60.5 9q-6 0 -19.5 2t-25.5 6t-22.5 10.5t-10.5 14.5q0 20 24.5 28.5t60.5 10.5q18 1 36.5 1t37.5 -1q38 -2 62 -2q92 0 183.5 8t185.5 8 q84 0 175 -18.5t168 -60.5t126 -111.5t49 -169.5q0 -117 -71.5 -192t-176.5 -109q10 -8 41 -17.5t47 -15.5q123 -47 199 -141.5t76 -229.5q0 -115 -42 -197.5t-113 -137t-165 -81t-200 -28.5q-10 -2 -19 -2h-18h-604q-23 0 -51.5 5t-28.5 36zM494 295q0 -47 7 -98.5 t46 -85.5q33 -29 86 -35t94 -6q188 0 279.5 95t91.5 247q0 96 -45 172q-37 63 -89.5 99t-114 54.5t-128 22.5t-131.5 4h-35q-23 0 -42 -10.5t-19 -40.5v-418zM498 866q0 -10 16 -22.5t51 -12.5h70q74 0 140.5 16.5t116.5 53.5t79.5 96.5t29.5 143.5q0 137 -85 208.5 t-216 71.5h-28q-23 0 -49.5 -1t-52 -8t-44 -21.5t-22.5 -40.5q-4 -23 -5 -46.5t-1 -46.5v-391z" />
<glyph unicode="C" horiz-adv-x="1488" d="M123 770q0 178 56.5 316.5t155.5 233.5t238.5 144t305.5 49q70 0 138 -8t138 -22q16 -4 37.5 -11.5t44.5 -13.5q14 -12 24.5 1.5t22.5 33.5t30.5 39.5t49.5 19.5q14 0 18 -20.5t4 -48.5q0 -29 -3 -59.5t-3 -53.5q0 -53 -2 -106.5t-6 -106.5q-4 -18 -10 -24.5t-14 -6.5 t-15.5 2t-13.5 2q-12 0 -20.5 18.5t-14.5 44.5t-13 53.5t-20 47.5q-66 72 -161 110t-195 38q-141 0 -241.5 -55.5t-164 -147.5t-93 -214t-29.5 -253q0 -141 29.5 -274t95 -236.5t170 -167t253.5 -63.5q49 0 102.5 11t103.5 32.5t94.5 52.5t76.5 72q10 14 23.5 38.5t28 49 t26.5 43t23 18.5q23 0 32 -8t9 -31q0 -16 -5.5 -53t-13.5 -77t-18.5 -72.5t-20.5 -43.5q-35 -31 -92 -52t-122.5 -35.5t-134.5 -20.5t-124 -6q-180 0 -324.5 66.5t-246 179t-155.5 262t-54 313.5z" />
<glyph unicode="D" horiz-adv-x="1705" d="M84 1460q8 8 49 15.5t99.5 12.5t125 8t129 5t111.5 3t70 1q205 0 373.5 -53t289.5 -154.5t186.5 -247t65.5 -329.5q0 -176 -73.5 -313.5t-194.5 -231.5t-276.5 -143t-317.5 -49q-49 0 -81 2t-60.5 4t-60.5 4t-81 2q-86 0 -164.5 -5t-164.5 -5q-18 0 -19 18 q0 20 11.5 30.5t26.5 16.5t32.5 8t32.5 7q66 14 81 43.5t19 91.5q2 20 3 46.5t2 73t2 120t1 192.5v477q0 33 -1 72t-3 74.5t-5 63.5t-7 38q-14 31 -44 38t-61 7q-16 0 -32.5 -1t-32.5 -1q-18 0 -35 10q-8 6 -8 18q0 19 12 31zM496 358q0 -90 11 -149t36.5 -94t64.5 -49.5 t94 -14.5q143 0 263 53.5t205 146.5t132.5 218t47.5 266q0 248 -126 423t-368 247q-43 12 -88 21.5t-92 9.5h-58q2 0 -11 -1t-31.5 -7.5t-38 -19.5t-29.5 -38q-6 -20 -8 -39.5t-2 -40.5q0 -53 1 -108.5t1 -108.5q0 -180 -2 -357.5t-2 -357.5z" />
<glyph unicode="E" horiz-adv-x="1374" d="M72 20q0 16 25.5 24.5t61.5 17t70.5 21.5t53.5 40q16 25 22 80t6 121q0 68 -2 136t-2 120q0 166 -2 329.5t-2 329.5v37v18q0 8 -2 19q-4 53 -38 70.5t-73.5 22.5t-71.5 10t-32 32q0 18 17.5 25.5t40.5 10.5q18 2 37 2h14q27 -1 45 -1q70 0 139.5 -3t140.5 -3 q141 0 277.5 3t277.5 3h23q23 0 45 -4t26 -21q8 -41 9 -76q0 -18 -1 -43.5t-1 -62.5q0 -41 -5.5 -77t-21.5 -38q-20 0 -32.5 25.5t-25 60.5t-27.5 69t-44 50q-18 10 -53 17.5t-78 11.5t-89 5t-87 1h-90q-47 0 -72 -19.5t-36 -50t-13 -68.5t-2 -73q0 -70 1 -139.5t1 -139.5 v-47q0 -27 4 -43q8 -10 24.5 -14t36 -5t38 0t30.5 1q55 0 112.5 1t112.5 9q61 10 88 51t31 101q6 12 13 23t24 11q23 0 24.5 -20t1.5 -43q0 -43 -2 -86t-2 -86t2 -85t2 -85q0 -10 1 -25.5t-1 -30t-9 -23.5t-21 -9t-22.5 18.5t-13.5 42t-9 47t-11 33.5q-8 39 -41.5 58.5 t-79.5 26.5q-40 6 -84 6h-13q-50 -1 -89 -1q-10 0 -26.5 -1t-35 -2t-35.5 -3t-26 -4q-12 -2 -16 -18.5t-6 -37t-1 -41t1 -28.5v-323q0 -23 1 -50.5t6 -55.5t16.5 -51.5t33.5 -35.5q16 -8 57 -13t87.5 -7t89.5 -3.5t61 -1.5h64q27 0 59.5 2.5t62 5.5t55 9t42.5 16 q29 18 53.5 57.5t46 78t40.5 68.5t36 30q28 0 28 -26q0 -12 -6 -23q0 -2 -4 -20.5t-6 -22.5q-2 -6 -10 -42t-17.5 -76t-16.5 -73l-7 -33q-16 -25 -51 -24h-967q-29 0 -58.5 -2t-60.5 -2q-23 0 -45 1.5t-22 32.5z" />
<glyph unicode="F" horiz-adv-x="1245" d="M72 10q0 16 18.5 25.5t43 13.5t50 7t37.5 7q45 8 62 50q6 12 10 44.5t6 74.5t3 86t1 81v76q0 205 -3 403.5t-3 403.5q0 49 -16.5 74.5t-40 37t-51 13.5t-51 3t-40 6t-16.5 24q0 12 4 20t19.5 13.5t45 6.5t82.5 1q49 0 93.5 -1t60.5 -1h318q94 0 186 1t186 1h45 q16 0 28.5 -1t16.5 -1q10 -2 14.5 -34t5.5 -72q1 -20 0.5 -39.5t-0.5 -39.5q-1 -39 -1 -55v-27q0 -14 -2 -26t-8.5 -20.5t-18.5 -8.5q-31 0 -39 28.5t-15 66.5t-24.5 76t-62.5 54q-20 8 -57 12.5t-77 7.5t-78 4t-61 1h-45q-41 0 -89 -6t-68 -19q-37 -25 -42 -60.5t-5 -76.5 q0 -92 1 -184t1 -184q0 -33 9 -48.5t24.5 -20.5t35 -4t41.5 1h74q35 0 74 1t74.5 6t63.5 13.5t42 22.5q20 20 29.5 49t15.5 53.5t16.5 42t34.5 17.5q14 0 17.5 -18.5t3.5 -28.5q0 -45 -2 -88.5t-2 -88.5t3 -88t3 -88q0 -12 1 -27.5t-2 -30.5t-10.5 -25.5t-21.5 -10.5 q-20 0 -29 29l-18 64q-10 36 -30.5 71t-65.5 47q-29 10 -86.5 13t-104.5 3h-55q-14 0 -37 1t-44.5 -2t-36.5 -13t-15 -31q0 -92 -2 -182t-2 -182v-43v-47q0 -25 2 -48.5t3 -42t5 -24.5q18 -39 58 -51t81 -16.5t71.5 -11.5t30.5 -36q0 -18 -19 -25t-40 -7h-20q-76 0 -152 7 t-152 7q-59 0 -115.5 -7t-113.5 -7q-16 0 -38.5 2.5t-22.5 25.5z" />
<glyph unicode="G" horiz-adv-x="1650" d="M123 719q0 186 56.5 333.5t158.5 251t245.5 158t319.5 54.5q88 0 185.5 -25t168.5 -72q14 -10 26.5 3.5t25 34t27 38.5t32.5 18q14 0 18.5 -20t4.5 -49t-3.5 -59.5t-3.5 -53.5q0 -53 -2 -106.5t-6 -106.5q-4 -18 -10 -24.5t-14 -6.5t-15.5 2.5t-13.5 2.5q-12 0 -21.5 16 t-16.5 41t-13 52.5t-15 49.5q-18 43 -57 78t-90 59.5t-108.5 38t-112.5 13.5q-152 0 -251 -58.5t-158.5 -155t-84 -220t-24.5 -252.5q0 -135 26.5 -259t86 -219.5t152.5 -151.5t226 -56q135 0 210 23.5t110 67.5t41 108.5t6 148.5q0 113 -4 176t-20.5 95t-49.5 39t-90 7 q-27 0 -48.5 4t-21.5 39q0 14 11.5 21.5t27 10.5t30.5 4t26 1q61 0 103 -4t103 -4q68 0 118 5t118 5q23 0 48.5 -4t25.5 -33q0 -20 -17.5 -25t-44 -6.5t-55.5 -5.5t-51 -22q-8 -4 -14.5 -20.5t-9.5 -40t-5 -50t-2 -49.5v-41q0 -27 1 -72t2 -93t2 -93t1 -72q0 -14 -1 -34.5 t-11 -30.5q-37 -47 -109.5 -72.5t-155.5 -39t-162 -16.5t-126 -3q-160 0 -294 44t-229.5 134t-148.5 227.5t-53 321.5z" />
<glyph unicode="H" horiz-adv-x="1771" d="M72 8q0 31 31.5 38t70.5 13.5t75 25.5t44 75q6 45 7 92t1 92v899q0 61 -15.5 94t-40 48.5t-51 19.5t-51 7t-40 10.5t-15.5 31.5q0 18 19.5 23.5t39.5 5.5h23q53 0 104.5 -3t104.5 -3q74 0 148.5 2t148.5 2q12 0 24.5 -6.5t12.5 -20.5q0 -41 -33 -46t-74 -5 q-20 0 -38.5 -4t-34 -15.5t-24.5 -33t-9 -56.5q0 -29 -1 -57.5t-1 -56.5v-349q0 -57 53 -57q86 0 152.5 -1t130.5 -1q63 0 129.5 -1t152.5 -1q20 0 46 -1t50.5 0t42 6t21.5 18q2 6 3 37.5t1 76.5q0 47 1 99.5t1 99.5v133q0 14 -1 33.5t-4 39t-9 37t-19 27.5 q-12 8 -30.5 13.5t-39 7.5t-37 5t-22.5 9q-20 0 -33.5 4t-13.5 29q0 16 8.5 23.5t22.5 10.5t29.5 2t31.5 -1q53 0 104.5 -5.5t102.5 -5.5q63 0 127 4.5t127 4.5q47 0 60.5 -8.5t13.5 -38.5q-6 -12 -32 -15.5t-57.5 -5.5t-61 -8t-44.5 -25q-16 -18 -21 -49t-5 -65v-35 q0 -258 -2 -511t-2 -511q0 -51 16 -79t40.5 -41t53.5 -17.5t53.5 -8.5t41 -12t16.5 -31q0 -31 -21.5 -32.5t-46.5 -1.5q-68 0 -136.5 6t-135.5 6q-66 0 -132.5 -6t-131.5 -6q-43 0 -43 32q0 31 21.5 37t51.5 6q31 0 65 5.5t56 33.5q23 29 29 72t6 78v372q0 31 -12.5 44.5 t-30.5 17.5t-39.5 3t-40.5 -1h-500q-25 0 -53.5 1t-52 -4t-38.5 -18.5t-15 -44.5v-401q0 -41 1 -48t1 -13q6 -55 40.5 -73t73.5 -22t71 -7t32 -32q0 -31 -21.5 -33.5t-48.5 -2.5q-53 0 -108.5 5t-108.5 5h-80q-55 0 -108.5 -6t-106.5 -6q-16 0 -38.5 1.5t-22.5 24.5z" />
<glyph unicode="I" horiz-adv-x="778" d="M72 20q0 18 20.5 25.5t48 12.5t58 12.5t51.5 25.5q20 16 25.5 58.5t5.5 81.5v43l2 716q0 53 1 104.5t1 102.5v39q0 35 -6.5 76t-18.5 57q-23 23 -53.5 28t-59 7t-48 10t-19.5 37q0 20 19.5 23.5t35.5 3.5h23q59 0 119.5 -6.5t119.5 -6.5q29 0 59.5 3.5t59.5 3.5h178 q4 -4 8.5 -14.5t4.5 -16.5q0 -29 -21.5 -35t-50.5 -6q-55 0 -86 -8t-45.5 -26.5t-16.5 -45.5t-2 -63q0 -129 -3 -256t-3 -256v-523q0 -33 5 -73.5t30 -63.5q18 -16 50 -22.5t61.5 -11.5t52 -11t22.5 -25q0 -31 -29.5 -33.5t-60.5 -2.5q-57 0 -114.5 6t-114.5 6 q-61 0 -110.5 -7t-110.5 -7h-29q-20 0 -39.5 6.5t-19.5 31.5z" />
<glyph unicode="J" horiz-adv-x="731" d="M16 -477q0 14 6.5 27.5t20.5 15.5q57 6 96 49t64.5 106.5t39 139.5t19.5 149.5t8 135t4 96.5q2 123 3.5 245.5t1.5 245.5v500q0 47 -7 96q-4 47 -39.5 59.5t-77.5 14.5t-77 7t-35 38q0 16 13.5 24.5t27.5 8.5q94 0 187.5 -6.5t187.5 -6.5q45 0 90 5.5t90 5.5 q16 0 31.5 -8.5t15.5 -28.5q0 -10 -11 -19.5t-52 -13.5h-9q-79 0 -108 -35q-31 -37 -31 -123q0 -23 1 -44t1 -44q0 -236 -1 -466t-1 -466q0 -115 -19.5 -234.5t-67.5 -223t-132 -179t-213 -104.5h-4q-10 0 -15 8q-8 11 -8 25z" />
<glyph unicode="K" horiz-adv-x="1638" d="M72 16q0 25 20.5 34t48 12.5t56 4.5t45.5 9q18 8 29.5 27.5t17.5 42t8 46t2 41.5q0 205 3 407t3 407v249q0 33 -9 67t-48 40q-20 4 -46 3t-49.5 2t-39 13.5t-15.5 34.5q0 16 19.5 21.5t38.5 5.5h22q53 0 104.5 -6.5t104.5 -6.5h64q47 0 92 5.5t92 5.5h18q16 0 35 -6.5 t19 -18.5q-4 -8 -6.5 -19.5t-6.5 -17.5q-10 -16 -42 -13q-14 1 -27 1q-19 0 -38 -2q-34 -4 -59.5 -28.5t-25.5 -98.5v-109q0 -49 1 -95t1 -95v-109q0 -4 -3 -17t1 -15q23 0 45 12t42.5 28.5t37.5 32.5l26 27q14 14 52 49t85.5 79t99.5 93t95 93t70.5 77t27.5 45 q0 20 -28.5 24.5t-62.5 5.5t-62.5 5t-28.5 25v16q10 27 41 28t59 1q55 0 111.5 -3t114.5 -3q51 0 101 3t102 3q16 0 30.5 -8.5t14.5 -26.5q0 -23 -22.5 -31t-55.5 -12t-69 -9.5t-62 -19.5q-16 -8 -62.5 -45t-106 -87t-125 -108.5t-120.5 -109.5t-93 -88t-42 -47 q4 -10 40 -51t86 -97.5t109.5 -121t112.5 -122t94 -101.5t55 -58q35 -39 72 -83t77 -83t84 -68.5t95 -42.5q27 -4 51 -11q23 -7 23 -35q0 -21 -22 -24q-19 -3 -31 -3q-66 0 -129.5 5t-128.5 5q-78 0 -158 -5t-158 -5q-20 0 -32.5 5t-12.5 29q0 20 21.5 30.5t50 15t55.5 3.5 t37 -1q16 0 31.5 6t-0.5 30q-2 4 -12.5 17.5t-22.5 30t-23.5 31t-15.5 20.5q-23 27 -62.5 74t-89 104t-102.5 116.5t-103.5 112t-91.5 90t-65 50.5q-23 2 -34 6t-15 -13q-2 -10 -3 -35.5t-1 -54.5v-92q0 -76 -1 -149.5t-1 -149.5q0 -31 3 -67.5t14 -67.5t36 -49 q20 -15 52 -15h15q8 -6 25.5 -5t36 0t32 -6t13.5 -23q0 -23 -18.5 -32t-38.5 -9h-27q-43 0 -85 5t-85 5q-86 0 -166 -6t-166 -6q-18 0 -41.5 3.5t-23.5 26.5z" />
<glyph unicode="L" horiz-adv-x="1284" d="M72 14q0 29 20.5 36t51 9t65.5 7.5t63 31.5q25 25 33 90.5t8 143.5q0 80 -4 160.5t-4 138.5v598q0 51 -8 92q-8 45 -44 60.5t-76 20.5t-71.5 10t-31.5 34t23.5 33t45.5 4q72 0 140.5 -7.5t140.5 -7.5q76 0 144.5 4.5t154.5 4.5q18 -16 18 -33q0 -25 -23.5 -32t-55.5 -10 l-66 -6q-33 -3 -53 -20q-14 -12 -21.5 -32.5t-10.5 -43t-4 -45t-1 -38.5q0 -186 -2 -365.5t-2 -366.5v-77q0 -37 1 -81t5 -84t12 -72t23 -44q51 -39 117 -47q31 -4 62 -4q34 0 69 5q63 9 114 27.5t70 30.5q33 18 68.5 64.5t66.5 96.5t53.5 90t28.5 46q18 14 40.5 9t31.5 -23 q-51 -82 -80 -163t-45.5 -145.5t-27.5 -104.5t-26 -40q-135 0 -278 18.5t-279 18.5q-68 0 -118 -4t-96 -8t-96 -8t-118 -4q-12 0 -20 10t-8 22z" />
<glyph unicode="M" horiz-adv-x="2050" d="M61 10q0 33 29 40t66 12.5t73.5 16.5t53.5 52q12 31 18 68t10 71q23 242 41.5 488t18.5 487q0 72 -33 106.5t-109 49.5l-30 6q-20 4 -42 9t-38.5 13.5t-16.5 20.5q0 23 22.5 26t39.5 3q35 0 66.5 -4.5t66.5 -4.5q53 0 103.5 4.5t103.5 4.5q16 0 26.5 -1t20.5 -16 q39 -53 61.5 -119.5t49.5 -128.5q61 -143 123.5 -284.5t123.5 -288.5q14 -35 33 -82t37 -91t33.5 -75t25.5 -31t18.5 16.5t14.5 31.5q117 242 219.5 488.5t218.5 487.5q25 53 39.5 68.5t36.5 15.5h43q37 0 54.5 -2t48.5 -2q45 0 88 2t88 2q14 0 36.5 -7t20.5 -31 q0 -16 -16.5 -25.5t-39 -13.5t-45 -5.5t-34.5 -1.5q-41 0 -63.5 -15t-33 -39.5t-12.5 -57.5t-2 -66v-51q4 -233 14.5 -454.5t22.5 -462.5q2 -37 8 -82t41 -68q10 -6 35 -13t53.5 -14.5t55 -14.5t43.5 -15q12 -6 12 -23q0 -20 -19.5 -23t-39.5 -3h-21q-59 0 -119.5 7 t-120.5 7q-66 0 -132 -7t-132 -7q-14 0 -39.5 4t-25.5 24q0 18 16 27.5t29 17.5q55 0 89 10.5t50 33t21.5 58.5t5.5 89l-27 682q-2 53 -3 96t-1 72q0 61 -16 71q-8 -6 -17.5 -21t-17.5 -33.5t-15.5 -36t-11.5 -25.5q-94 -213 -185 -412t-179 -414q-10 -25 -24.5 -64.5 t-32 -76.5t-34 -64.5t-28.5 -27.5q-23 0 -35 28.5t-16 45.5q-68 193 -142.5 379t-161.5 370q-8 18 -31.5 75.5t-51 121t-52 113t-34.5 49.5q-4 0 -7.5 -60.5t-6.5 -157t-5 -214t-3 -230.5t-2 -209t-1 -147q0 -35 17.5 -53.5t43 -28.5t56 -14.5t56.5 -8.5t43 -13t17 -30 q0 -23 -25.5 -24.5t-39.5 -1.5q-53 0 -105.5 4t-105.5 4q-66 0 -130.5 -4t-129.5 -4q-12 0 -36 5t-24 21z" />
<glyph unicode="N" horiz-adv-x="1845" d="M29 1442q0 18 21.5 28.5t35.5 10.5q45 0 88 -2t88 -2q35 0 66.5 2t66.5 2q37 0 56.5 -9.5t37 -28t38 -45t59.5 -63.5q82 -98 167 -197.5t188 -219t231 -270t298 -353.5q29 2 27 45v248q1 106 1 213v106q-1 160 -1 320q0 29 -1 55.5t-7 52.5q-10 45 -48 56.5t-80 12.5 t-76 5t-34 37q0 20 14.5 27.5t30.5 7.5q66 0 131.5 -4t131.5 -4q53 0 107 3t108 3q45 0 45 -35q0 -25 -26 -32t-58.5 -10t-65.5 -8t-47 -24q-12 -16 -20.5 -57t-11.5 -87t-4 -89t-1 -64v-424q0 -119 -1 -268.5t-1 -351.5q0 -35 -3 -65t-30 -34h-4l-16 5q-10 7 -19.5 17.5 t-18.5 22t-15 19.5q-59 70 -118 139.5t-116 140.5q-2 2 -7 8.5t-25.5 30t-63.5 73.5t-121 140t-195.5 227.5t-289.5 338.5q-35 41 -71 89t-81 85q-6 -35 -6 -70q0 -111 2 -208t3 -201.5t3 -226.5t2 -281q0 -94 12.5 -137.5t38 -58.5t65.5 -17.5t97 -14.5q16 -4 31.5 -15 t15.5 -32q0 -12 -12 -16t-23 -4q-59 0 -118.5 4t-118.5 4q-68 0 -135.5 -4t-136.5 -4q-16 0 -38 6t-22 28q0 18 15.5 26.5t38 11.5t47 4t40.5 3q35 6 54.5 24.5t29 45.5t11.5 57.5t2 59.5q4 246 8 484.5t4 484.5q0 33 -3 62.5t-17.5 52t-41 39t-73.5 24.5q-12 2 -35 3 t-45.5 5t-38.5 12.5t-16 24.5z" />
<glyph unicode="O" horiz-adv-x="1812" d="M123 723q0 170 57.5 315.5t160.5 252t244.5 167t309.5 60.5q162 0 306.5 -56.5t253 -158t172 -242.5t63.5 -313q0 -164 -62.5 -310.5t-172 -256t-257 -174t-315.5 -64.5q-166 0 -306.5 58t-240.5 162.5t-156.5 247t-56.5 312.5zM347 892v-11q0 -120 22 -232 q20 -121 70 -241.5t132 -213t199 -139.5q73 -29 160 -29q53 0 112 11q152 27 240 111.5t129 200.5t43 245v23q0 116 -18 223q-25 131 -80.5 249.5t-140.5 203.5t-199 125q-69 24 -148 24q-53 0 -110 -10q-154 -29 -242 -111t-128 -192.5t-41 -236.5z" />
<glyph unicode="P" horiz-adv-x="1263" d="M74 29q0 8 25.5 15t59.5 16.5t65.5 22.5t43.5 36q16 35 18.5 77t2.5 80q0 123 2 246t2 246q0 135 -1 269t-1 270q0 45 -16.5 65.5t-40 27.5t-52 5t-52.5 -1t-40 9t-16 35q0 16 12 22.5t27 8.5q98 10 195.5 12t195.5 2h117q111 0 211 -25.5t175.5 -79t121 -136.5 t45.5 -195q0 -96 -39 -175t-104.5 -136.5t-155 -89t-187.5 -31.5q-35 0 -42 5l-21 15q-4 4 -9.5 15.5t-6.5 23.5t2 21.5t14 9.5q8 -2 10 -2q74 2 133 27.5t102 69.5t67 106.5t24 136.5q0 70 -21.5 134t-66 113.5t-110 80t-151.5 34.5q-23 0 -49 -3t-45 -19 q-18 -18 -25.5 -58.5t-7.5 -77.5v-40q0 -104 2 -207t5 -207h-3v-152q-2 -23 -3 -60.5t-2 -79.5t-1 -85v-76v-125q0 -25 2 -49t10.5 -45.5t21.5 -38t38 -22.5q12 -4 34.5 -8.5t46 -8.5t43 -7t28.5 -5q16 -8 11 -18.5t-9 -24.5q-10 -8 -24.5 -10t-29.5 -2q-66 0 -133 7t-135 7 q-72 0 -140.5 -7t-140.5 -7q-20 0 -26 13.5t-6 29.5z" />
<glyph unicode="Q" horiz-adv-x="1812" d="M123 723q0 170 57.5 315.5t160.5 252t244.5 167t309.5 60.5q162 0 306.5 -56.5t253 -158t172 -242.5t63.5 -313q0 -109 -31 -210.5t-87 -189.5t-133 -161.5t-169 -127.5q51 -74 99 -119.5t95 -76.5t95.5 -50.5t101.5 -39.5q8 -4 12 -16.5t4 -24.5q0 -14 -5 -26.5 t-13 -12.5q-22 -2 -44 -2q-52 0 -108 10q-80 14 -160.5 49t-159.5 89.5t-149 127.5q-25 -6 -42 -11t-34.5 -8t-36 -4t-42.5 -1q-166 0 -306.5 58t-240.5 162.5t-156.5 247t-56.5 312.5zM353 893q-2 -31 -1 -61q0 -94 17 -183q20 -121 70 -242.5t132 -215t199 -139.5 q70 -28 154 -27q56 0 118 12q117 25 202 108.5t134 199.5t64 247q6 54 6 105q0 74 -12 143q-25 131 -79 249.5t-140.5 203.5t-200.5 125q-69 24 -148 24q-53 0 -110 -10q-137 -27 -223 -109t-130.5 -192.5t-51.5 -237.5z" />
<glyph unicode="R" horiz-adv-x="1470" d="M72 23q0 14 16 19t42 9t54.5 9.5t54 19.5t42 38.5t16.5 67.5v422q0 174 3 346t3 346q0 41 -16.5 63.5t-42 32t-54 11.5t-54 4t-42 8t-16.5 25q0 29 21.5 34t43.5 5q23 0 46.5 -2t46.5 -2h178q78 0 156.5 3t156.5 3q68 0 145.5 -17.5t145 -63.5t113 -124t45.5 -199 q0 -66 -28 -122t-72 -101t-98 -80t-108 -59q41 -16 79 -72.5t76 -134.5t81 -165t96 -165t118.5 -136t152.5 -77q23 -10 46 -15t23 -24q0 -12 -18 -30q-23 -8 -74 -9q-20 0 -40.5 2.5t-35.5 4.5q-174 31 -291.5 141.5t-179.5 269.5q-35 66 -64.5 135.5t-67.5 126t-88 93 t-124 36.5q-41 0 -50 -16t-9 -66v-421q0 -53 13 -80t36.5 -39t56.5 -16.5t74 -12.5q4 -2 16 -2q16 0 30.5 -4t14.5 -20q0 -29 -20.5 -35t-61.5 -6q-74 0 -147.5 7t-144.5 7q-63 0 -126 -6t-126 -6q-27 0 -35 5t-8 34zM496 821q0 -17 5 -28q5 -14 22.5 -20.5t54.5 -6.5 q82 0 153.5 13.5t123.5 49t82 98t30 160.5q0 82 -27 143.5t-73 103.5t-109.5 63.5t-139.5 21.5q-72 0 -94 -25.5t-22 -74.5v-70q0 -82 -2 -184t-2 -184q0 -13 -1 -32.5t-1 -27.5z" />
<glyph unicode="S" horiz-adv-x="1067" d="M94 1104q0 98 36 175t97.5 129t144.5 80t175 28q43 0 96 -23t90 -45q23 -12 34 -1t21.5 31.5t25.5 39t46 18.5q14 0 18.5 -20.5t4.5 -49.5t-3 -59.5t-3 -52.5v-43q0 -85 -7 -170q-4 -18 -10 -24.5t-14 -6.5t-16.5 2t-14.5 2q-12 0 -20.5 18.5t-14.5 44t-12 53t-18 48.5 q-33 78 -96.5 121t-129.5 43q-53 0 -101 -16.5t-84 -47t-56.5 -76t-20.5 -100.5q0 -86 56.5 -150.5t138.5 -114.5t173 -93t161 -88q86 -57 134 -149.5t50 -196.5q0 -113 -36 -198t-100.5 -142.5t-153.5 -87t-196 -31.5q-39 0 -72.5 10t-63 21.5t-55.5 21.5t-48 10 q-25 0 -36 -13t-21.5 -30.5t-24.5 -31t-45 -13.5q-14 0 -18.5 25.5t-4.5 60.5t3 72t3 59q0 53 1.5 96.5t5.5 96.5q2 18 9 24.5t15 6.5t15.5 -2.5t13.5 -2.5q14 0 22.5 -17t14.5 -43t13 -54.5t17 -48.5q37 -80 115 -124t162 -44q61 0 113.5 19.5t91.5 56t60.5 88t21.5 116.5 q0 96 -52.5 162t-130 117t-169 96t-169 101.5t-130 131t-52.5 185.5z" />
<glyph unicode="T" horiz-adv-x="1445" d="M25 1141q0 35 16 93t27 165q2 23 4 48.5t9 45.5t21.5 33.5t40.5 13.5q10 0 17.5 -10t17.5 -23.5t27.5 -26t48.5 -14.5q123 -6 252 -9t252 -3q98 0 189 2t190 2q31 0 62.5 1t62.5 5q25 4 41 18.5t28 31t20.5 29.5t18.5 13q35 0 44 -26q5 -14 5 -27q0 -12 -4 -22 q-14 -39 -19 -103.5t-12.5 -126t-20.5 -106.5t-44 -45q-25 0 -29 19.5t-1 48.5q5 52 6 75q0 29 -11 55q-10 25 -40 40.5t-70.5 22.5t-87 10t-87.5 3q-31 0 -55 -1t-41 -1q-14 0 -26.5 1t-21.5 -8t-14 -32.5t-5 -70.5l-5 -250q-2 -80 -1 -160q0 -100 2.5 -200.5t2.5 -200.5 q0 -80 -1 -160q0 -33 1 -65.5t7 -65.5q10 -57 51 -77t86 -25l81 -9t36 -29q0 -33 -14.5 -34.5t-41.5 -1.5q-82 0 -162.5 5t-162.5 5q-74 0 -146.5 -5t-146.5 -5q-16 0 -33.5 2t-17.5 24q0 25 18.5 32t38.5 7q18 0 27 2q59 6 95 20.5t54.5 40t24.5 64.5t6 96v992 q0 10 -1 37.5t-3 37.5q-4 18 -47 25.5t-92 7.5h-127q-47 0 -91.5 -13t-85.5 -52q-10 -10 -26.5 -43l-34.5 -69t-35.5 -64.5t-25.5 -28.5q-20 0 -30.5 8t-10.5 31z" />
<glyph unicode="U" horiz-adv-x="1662" d="M29 1442q0 39 41 39q66 0 130 -6.5t130 -6.5q72 0 140.5 6.5t139.5 6.5q16 0 41 -4t25 -27q0 -29 -27.5 -37t-62.5 -14t-69 -16.5t-48 -43.5q-6 -14 -10 -40.5t-7 -59.5t-4.5 -67.5t-1.5 -65.5v-377q0 -63 1.5 -126.5t5.5 -127.5q8 -127 39.5 -209t84 -129t124 -65.5 t159.5 -18.5q104 0 179 19.5t127.5 64.5t85 116t51.5 175q12 57 12 119v438q0 47 2 106.5t2 114.5t-6 99.5t-25 60.5q-18 16 -47 20.5t-56.5 9.5t-47 16t-19.5 40q0 20 14.5 24.5t30.5 4.5q53 0 107.5 -4t107.5 -4q55 0 110.5 3t110.5 3q29 -10 29 -31q0 -23 -24.5 -35 t-57.5 -19.5t-62.5 -11.5t-39.5 -10q-14 -8 -20.5 -64.5t-7.5 -131.5q-1 -38 -0.5 -77.5t0.5 -80.5q1 -82 1 -144q0 -55 1 -110t1 -111q0 -90 -5 -188t-31.5 -187.5t-80 -161t-151.5 -110.5q-86 -33 -178 -46t-180 -13q-104 0 -198.5 19.5t-168.5 66.5t-121 125t-59 196 q-2 18 -3 37t-1 37v76q0 174 4 344t4 344q0 29 -1 65.5t-10.5 68.5t-31 54.5t-62.5 22.5h-22q-10 0 -25.5 1t-31 4t-26.5 11.5t-11 22.5z" />
<glyph unicode="V" horiz-adv-x="1572" d="M20 1450q0 18 21.5 25.5t42.5 7.5h22q49 0 98.5 -6.5t98.5 -6.5q72 0 142.5 6.5t142.5 6.5q18 0 32.5 -12.5t14.5 -30.5q0 -23 -28.5 -27t-64.5 -6t-64.5 -11.5t-28.5 -41.5q0 -6 2 -13.5t4 -13.5q10 -31 40.5 -114t71.5 -189t87 -224t87 -218.5t72 -170t43 -79.5 q6 -6 14.5 1t15.5 18t12 22.5t7 15.5q12 29 42 105.5t68 175t78 208t73.5 204t55 161t21.5 80.5q0 43 -32.5 55.5t-72.5 16.5t-73 11t-33 38q0 16 12.5 27.5t28.5 11.5q66 0 133.5 -7.5t132.5 -7.5q47 0 92.5 5.5t92.5 5.5q14 0 21 -10.5t7 -22.5q0 -27 -17 -35t-42 -12 t-51.5 -13.5t-44.5 -35.5q-6 -10 -17.5 -37t-25 -57.5t-24.5 -60.5t-17 -44q-43 -111 -89 -218.5t-91 -217.5q-76 -186 -148 -370.5t-147 -371.5q-4 -12 -9.5 -19t-21.5 -7q-14 0 -22.5 11t-12.5 22q-47 117 -96 237.5t-96 237.5q-86 221 -170 441t-189 437q-18 39 -52 51.5 t-66.5 18.5t-57.5 13t-25 34z" />
<glyph unicode="W" horiz-adv-x="2244" d="M20 1458q0 12 10.5 16.5t25 6.5t26.5 1t16 -1q45 0 89 -5.5t89 -5.5q53 0 107.5 5.5t108.5 5.5q16 0 28 -8.5t12 -26.5q0 -23 -19 -28t-44 -8t-44 -10t-19 -34q0 -14 24.5 -80.5t63 -160t86 -201t90.5 -204.5t77.5 -173t49.5 -107q8 -20 24.5 -57t33.5 -70.5t32.5 -54 t21.5 -6.5l224 510q-55 147 -113.5 288.5t-126.5 282.5q-18 39 -52 51.5t-67 18.5t-57.5 13t-24.5 34q0 18 21.5 25.5t42.5 7.5h22q49 0 98.5 -6.5t98.5 -6.5q72 0 142.5 6.5t142.5 6.5q18 0 32.5 -12.5t14.5 -30.5q0 -23 -29 -27t-64.5 -6t-64.5 -11.5t-29 -41.5 q0 -6 2 -13.5t4 -13.5q10 -31 41 -114t72 -189t87 -224t87 -218.5t72 -170t43 -79.5q6 -6 14 1t15.5 18t12.5 22.5t7 15.5q12 29 42 105.5t67.5 175t77.5 208t74 204t55.5 161t21.5 80.5q0 43 -33 55.5t-73 16.5t-72.5 11t-32.5 38q0 16 12.5 27.5t28.5 11.5 q66 0 133.5 -7.5t132.5 -7.5q47 0 92 5.5t92 5.5q14 0 21.5 -10.5t7.5 -22.5q0 -27 -17.5 -35t-42 -12t-51 -13.5t-45.5 -35.5q-6 -10 -17 -37t-24.5 -57.5t-24.5 -60.5t-17 -44q-43 -111 -89.5 -218.5t-91.5 -217.5q-76 -186 -147.5 -370.5t-147.5 -371.5q-4 -12 -9 -19 t-21 -7q-14 0 -22.5 11t-12.5 22q-47 117 -96.5 237.5t-96.5 237.5l-67 172l-37 -70q-12 -16 -43 -76.5t-64.5 -133.5t-65.5 -140.5t-44 -95.5q-10 -23 -22.5 -50.5t-27 -52t-30.5 -42t-31 -17.5q-27 0 -36 20.5t-17 40.5q-141 326 -276.5 641.5t-282.5 636.5 q-29 63 -61.5 83t-60.5 25t-46.5 13t-18.5 49z" />
<glyph unicode="X" horiz-adv-x="1597" d="M41 20q0 20 12.5 28.5t34 11.5t48 7.5t57.5 20.5q41 23 77.5 61.5t71.5 84t67.5 92.5t65.5 86q23 27 59.5 67.5t72.5 83.5t62.5 81t26.5 56q-23 45 -55.5 85t-60.5 81q-74 104 -149 203.5t-152 200.5q-20 25 -39 50.5t-41 47.5q-25 25 -52.5 32t-49 9t-36 8t-14.5 31 q0 23 23.5 30t40.5 7q41 0 76.5 -2t69.5 -5t69.5 -5.5t76.5 -2.5q53 0 107.5 7.5t107.5 7.5h21q20 0 37.5 -7.5t17.5 -25.5q0 -31 -31.5 -38t-70.5 -9t-71 -8t-32 -33q0 -12 31 -62.5t72 -109.5t83 -117.5t64 -89.5q6 -6 18.5 -23.5t26 -37t25.5 -33.5t20 -14q10 0 34 25.5 t52.5 64.5t60.5 86t59.5 91t50 78.5t32.5 49.5q10 12 23.5 38.5t13.5 41.5q0 33 -27.5 44t-59.5 16t-59.5 10t-27.5 26q0 27 25.5 31t44.5 4q63 0 124.5 -6.5t124.5 -6.5q49 0 93.5 5.5t95.5 5.5q16 0 39.5 -2t23.5 -25q0 -12 -9 -20.5t-19 -12.5q-33 -12 -61.5 -17 t-55.5 -13.5t-53.5 -23.5t-53.5 -44q-106 -117 -202.5 -243t-188.5 -251q-16 -18 -18 -38q10 -31 29 -58l36 -53q98 -135 193.5 -266t196.5 -260q14 -18 29.5 -35t35.5 -29q23 -16 48.5 -23.5t47 -12.5t35.5 -10t14 -17q0 -39 -17 -42t-48 -3t-53.5 2t-43 4t-43 4t-53.5 2 q-92 0 -177 -4t-177 -4q-23 0 -31 18.5t2 38.5q16 10 49 12t65 5t56.5 13.5t24.5 37.5q0 12 -6 23l-12 22q-10 14 -36 52t-59.5 88t-72.5 104.5t-74 100.5t-62.5 78.5t-37.5 36.5q-23 -12 -36.5 -31.5t-27.5 -37.5q-14 -16 -38.5 -51t-54.5 -77t-60.5 -88t-56 -88t-42 -75 t-16.5 -49q0 -33 31.5 -43t70.5 -15.5t71 -13.5t32 -39q0 -12 -16.5 -17t-33.5 -5h-16q-47 0 -91 5t-91 5q-41 0 -75 -2t-65.5 -3t-64.5 -3t-76 -2q-16 0 -34.5 5.5t-18.5 28.5z" />
<glyph unicode="Y" horiz-adv-x="1603" d="M20 1458q0 20 14.5 22.5t31.5 2.5q57 0 112 -8.5t113 -8.5q78 0 156.5 7.5t158.5 7.5q10 0 25.5 -10.5t15.5 -20.5q0 -31 -28.5 -36t-62.5 -6t-62.5 -6t-28.5 -34q0 -23 19.5 -57.5t45 -72.5t53 -74t46.5 -60q49 -72 98 -142.5t102 -136.5q6 -8 11.5 -15t15.5 -11 q6 2 13.5 8t11.5 10q12 12 43.5 54t73.5 98.5t87 121t83 120t62.5 94t24.5 47.5q0 35 -28.5 44t-62.5 11t-62.5 7t-28.5 34q0 25 11.5 28t31.5 3q47 0 94 -6.5t95 -6.5q53 0 105 7.5t106 7.5q29 0 52 -11q15 -7 15 -20q0 -7 -4 -16q-8 -16 -28.5 -21.5t-45 -9.5t-51.5 -14.5 t-49 -36.5q-76 -88 -146.5 -180.5t-142.5 -184.5q-33 -41 -72.5 -87t-75.5 -94t-59.5 -97.5t-23.5 -94.5v-407q0 -55 16.5 -85t41 -42t54 -14.5t57 -3.5t48 -6t28.5 -25q0 -18 -8 -32.5t-30 -14.5q-80 0 -161 7t-161 7q-74 0 -146.5 -7t-146.5 -7q-6 0 -14 2t-8 12 q-10 31 12 42t58 16t74 11.5t60 30.5q10 12 16.5 40t9.5 64t4 76.5t1 77.5v181q0 63 -2 106t-26 78q-111 160 -220.5 312.5t-220.5 312.5q-23 33 -57.5 47t-66 21t-54.5 14t-23 30z" />
<glyph unicode="Z" horiz-adv-x="1550" d="M49 8q0 4 34 46t88 110.5t126 156t147.5 179.5t150.5 183t137.5 166t106.5 129t58 73q14 18 53 61t80 89t76 87t41 55q4 4 10 15.5t8 17.5q2 8 -13 11.5t-38 3.5q-20 0 -40.5 -1t-26.5 -1h-144q-59 0 -122.5 -1.5t-126 -2.5t-121 -2t-103.5 -3q-66 -4 -119 -20.5 t-100 -67.5q-16 -16 -30.5 -40.5t-28 -49t-27.5 -42t-27 -17.5q-10 0 -29.5 5t-13.5 21q12 53 29 107l33 106q16 45 27.5 81t39.5 36q23 0 33 -2t18.5 -5t19.5 -7t34 -6q18 -12 55 -16.5t70 -4.5h39q92 0 204.5 2t230.5 3t231.5 3t205.5 2q20 0 51 5.5t56.5 7.5t43.5 -6 q13 -6 12 -22q0 -5 -1 -11q0 -2 -35 -44t-93.5 -109.5t-133 -154.5t-153.5 -179.5t-157.5 -183.5t-143 -168t-111 -131t-60.5 -73q-16 -23 -50 -62.5t-70 -83.5t-63.5 -84t-31.5 -65q0 -16 13.5 -24t32 -10t38.5 -1t37 1q92 0 199.5 1t199.5 1q72 0 156 3t156 23 q51 20 78.5 56t56.5 84q12 23 20 50t19.5 47.5t27 26t39.5 -15.5q6 -35 6 -65q0 -35 -9 -71t-15 -71q-4 -25 -7 -52.5t-11.5 -51t-25 -37.5t-48.5 -14q-78 0 -156 4t-156 4h-178q-186 0 -388 -7.5t-388 -7.5q-33 0 -33 31z" />
<glyph unicode="[" horiz-adv-x="681" d="M154 -391l4 1851q0 8 1 17.5t11 13.5q4 4 18 4q45 0 88 -11t89 -18q23 -4 47 -6t47 -2q76 0 147 19q16 4 31.5 10t32.5 6q8 0 12 -8t4 -17q0 -35 -30.5 -54t-70.5 -29.5t-81 -13.5t-62 -3q-18 0 -35.5 2t-33.5 2q-29 0 -48.5 -13t-19.5 -42q-8 -117 -9 -227.5t-1 -227.5 q0 -272 -1 -536.5t3 -536.5q0 -14 4 -43t14 -39q16 -16 50 -15t57 1q20 0 63 -3t87 -14.5t76 -31t30 -50.5q-2 -14 -12.5 -18t-20.5 -4q-25 0 -49.5 10t-48.5 15q-57 10 -114.5 12t-115.5 -8q-35 -6 -66.5 -19.5t-66.5 -13.5q-20 0 -25 12.5t-5 28.5z" />
<glyph unicode="\" horiz-adv-x="669" d="M-72 1546h117q174 -401 347 -794.5t351 -794.5h-118q-174 401 -348.5 794.5t-348.5 794.5z" />
<glyph unicode="]" horiz-adv-x="661" d="M0 1468q0 8 4 16.5t12 8.5q16 0 31.5 -6t32.5 -10q70 -18 147 -19q23 0 47.5 2t47.5 6q45 6 88 17.5t88 11.5q14 0 18 -4q10 -4 11 -13.5t1 -17.5l4 -1851q0 -16 -5 -28.5t-25 -12.5q-35 0 -67 13t-66 20q-57 10 -114.5 8t-115.5 -12q-25 -4 -49 -14.5t-49 -10.5 q-10 0 -20.5 4t-12.5 18q-2 31 30 50.5t76 31t87 14.5t63 3q23 0 56.5 -1t50.5 15q10 10 14 39t4 43q4 272 3 536.5t-1 536.5q0 117 -1 227.5t-9 227.5q0 29 -19.5 42t-48.5 13q-16 0 -33.5 -2t-35.5 -2q-20 0 -61.5 3t-81.5 13.5t-70.5 29.5t-30.5 54z" />
<glyph unicode="^" horiz-adv-x="790" d="M39 1018q0 6 24.5 36.5t61.5 75t81 94.5t84 94t69.5 74.5t37.5 37.5q6 -2 21 -17q61 -68 119.5 -138.5t121.5 -135.5q2 -4 17.5 -20.5t31 -35t28.5 -33.5l14 -16q4 -12 4 -16q0 -14 -19 -14q-16 0 -63 32.5t-101.5 73.5t-103.5 81t-70 54q-23 -16 -72 -56t-103 -81 t-102 -72.5t-69 -31.5q-12 0 -12 14z" />
<glyph unicode="_" horiz-adv-x="1236" d="M20 -172h1197v-113h-1197v113z" />
<glyph unicode="`" horiz-adv-x="894" d="M284 1404q-1 9 15 23q12 10 17.5 14.5t11.5 8.5l15 10q9 6 28 21q10 16 24.5 9t18.5 -17q10 -20 41.5 -70.5t66.5 -105t62.5 -101.5t29.5 -61q6 -20 -9 -30.5t-34 7.5q-20 18 -59 54t-81 77t-79 78t-55 59q-12 15 -13 24z" />
<glyph unicode="a" d="M96 178q0 45 23.5 83t59.5 68.5t78 53.5t79 37q72 27 130 46t132 38v158q0 86 -31.5 138t-124.5 52q-61 0 -98 -21.5t-58.5 -51t-29.5 -58.5l-12 -43q-10 -33 -43 -55.5t-72 -22.5q-23 0 -27 19.5t-4 35.5q0 49 41 101.5t100.5 97.5t129 73.5t127.5 28.5q14 0 35.5 -3 t44 -7t43 -10t32.5 -12q68 -35 84.5 -91.5t16.5 -125.5q0 -78 -2 -165t-2 -165q0 -18 -2 -54q-1 -18 -0.5 -36.5t0.5 -37.5q1 -38 4.5 -72t11.5 -46q8 -14 24.5 -19.5t32.5 -5.5q23 0 37 7.5t24.5 16.5t18.5 17.5t19 10.5q25 6 24 -15q0 -2 -4 -18q-16 -66 -69.5 -105.5 t-120.5 -39.5q-68 0 -107 43t-55 104q-23 -31 -56.5 -59.5t-74.5 -52t-85 -37t-85 -13.5q-104 0 -146.5 60.5t-42.5 152.5zM262 209q0 -57 26.5 -94t92.5 -37q43 0 87 21.5t73 52.5q16 16 34.5 47.5t20.5 54.5q0 14 1 19.5t1 7.5v90q0 20 -1 35.5t-3 25.5q-18 -4 -43 -11 t-50.5 -16.5t-49 -18.5t-41.5 -15q-55 -20 -101.5 -59.5t-46.5 -102.5z" />
<glyph unicode="b" horiz-adv-x="1175" d="M57 1505q0 16 19 27q55 16 92 32.5t61.5 30t42 21.5t35.5 8q29 0 36 -18.5t7 -32.5q0 -29 -5 -59.5t-5 -59.5q-1 -38 -1 -77q0 -115 5 -230q4 -92 4 -187q0 -63 -2 -126q37 25 68.5 46t63.5 36.5t68 24.5t81 9q96 0 178 -41t141.5 -108.5t93 -153.5t33.5 -178 q0 -109 -42 -199t-114.5 -156.5t-167 -103.5t-198.5 -37q-20 0 -33.5 1t-26 4.5t-25.5 7.5t-32 10q-16 4 -48 20.5t-75 16.5q-23 0 -36 -7.5t-22 -16.5l-20 -19q-10 -10 -26 -17q-14 -8 -24 -8q-8 0 -15 5q-14 11 -4 34q18 74 22 171t4 202v139l2 144q0 125 -5 247 q-7 193 -7 391v74q0 49 -19.5 69.5t-42 30t-42 13.5t-19.5 20zM350 694v-381q0 -45 10.5 -86t38.5 -75q41 -47 86 -77t107 -30q72 0 128 32t94 84t57.5 116.5t19.5 130.5q0 84 -22.5 162.5t-68.5 140t-116 98.5t-162 37q-51 0 -80.5 -13.5t-72.5 -41.5q-20 -18 -20 -43 q0 -9 0.5 -27.5t0.5 -26.5z" />
<glyph unicode="c" horiz-adv-x="937" d="M102 424v12q0 98 31 187q33 94 95.5 166.5t149.5 115.5t193 43q33 0 83.5 -6t95.5 -22.5t77.5 -45t32.5 -73.5q2 -35 -20.5 -54.5t-55.5 -19.5t-59.5 24.5t-53 54.5t-57 54.5t-71.5 24.5q-78 0 -131.5 -38t-87 -97.5t-48 -130t-14.5 -138.5q0 -74 18.5 -145.5 t57.5 -127.5t98.5 -91t141.5 -35h45q53 0 100 22.5t88 55.5q10 8 19.5 15t19.5 13q12 -10 12 -24q0 -18 -14 -36.5t-25 -33.5q-12 -16 -33.5 -33.5t-47 -34t-51 -28.5t-44.5 -18q-72 -23 -133 -23q-96 0 -173 38t-130 102.5t-81 148.5t-28 178z" />
<glyph unicode="d" horiz-adv-x="1202" d="M102 399q0 106 37 201.5t103.5 166.5t158 112t201.5 41q35 0 58.5 -3.5t44 -9.5t43 -15t55.5 -22q10 10 12 22.5t2 25.5q0 80 3 159.5t3 157.5q0 41 1 80q0 8 1 15q0 31 -4 65q-4 43 -20.5 54t-52.5 24q-12 4 -36 15t-24 28q0 10 13.5 21t25.5 13q41 4 82 12.5t73.5 17.5 t56.5 15.5t30 6.5q8 0 12 -7.5t4 -13.5v-188q0 -41 -2 -83t-2 -83q0 -258 -4 -506t-4 -506v-31q0 -25 3 -57.5t13 -42.5q12 -12 39 -12q18 0 35.5 3t36.5 7q10 -4 20 -7t10 -20q0 -12 -10 -22q-6 -6 -46 -18.5t-88 -25t-92 -21.5t-56 -9t-15 2q-10 12 -10 37q0 16 2 30.5 t2 30.5q0 8 -1 18.5t-11 14.5q-16 -8 -31.5 -20.5t-32.5 -22.5q-74 -41 -122 -59.5t-105 -18.5q-88 0 -163 35t-130 94.5t-87 136t-32 162.5zM279 471q0 -80 23.5 -151.5t67.5 -127t110.5 -87t152.5 -31.5q14 0 41.5 10t56.5 24.5t52.5 30t29.5 27.5q-1 27 -1 53t1 52 q2 52 2 100q0 26 0.5 83t0.5 88q0 81 -16 150q-17 74 -61.5 122t-134.5 48q-84 0 -144.5 -32.5t-101.5 -87t-60 -125t-19 -146.5z" />
<glyph unicode="e" horiz-adv-x="940" d="M104 399v18q0 88 19 177q20 98 67.5 177t124 129t185.5 50q123 0 210 -52t124 -175q8 -27 13 -53.5t7 -53.5q0 -27 -8 -41q-10 -2 -21.5 -3t-21.5 -1h-510q-8 0 -21 -4q-6 0 -8 -16t-2 -33v-16q2 -84 19.5 -160t56.5 -133t102.5 -91t157.5 -34q39 0 68.5 6t55.5 18.5 t51.5 31t55.5 40.5q2 2 17 2q14 0 14 -12q0 -10 -11 -26.5t-25.5 -33t-30 -30.5t-23.5 -21q-63 -53 -122.5 -76.5t-141.5 -23.5q-96 0 -170 34t-125 94t-78 140t-29 172zM283 651q0 -8 13 -11t31 -4q9 -1 17 -1t16 1q16 1 21 1q57 0 95 -1h16q33 0 77 3q25 2 45.5 4t36 8 t24.5 21.5t9 44.5q0 35 -15.5 67.5t-40 57t-56 39t-64.5 14.5q-43 0 -84 -21.5t-73 -56.5t-50 -79t-18 -87z" />
<glyph unicode="f" horiz-adv-x="690" d="M47 4q0 29 24.5 35t55.5 13t55.5 28.5t24.5 81.5v594q0 27 -6 55q-49 6 -97 6q-16 0 -36.5 4t-20.5 27q0 8 1 19.5t5 19.5q6 10 25.5 14t43 7t47.5 5t36 9q6 80 7 159.5t21 157.5q18 78 56.5 148.5t92.5 124t125 83.5q66 29 144 29h11q43 0 87 -6t78.5 -23.5t57 -46 t24.5 -71.5q2 -8 2 -16q0 -16 -9 -31q-13 -23 -35.5 -36.5t-48 -15.5t-42.5 13q-12 8 -19 30.5t-26.5 44t-60.5 39t-121 17.5q-43 0 -74 -27t-51.5 -69t-32.5 -95t-18 -107.5t-8.5 -103.5t-2.5 -84v-28q0 -25 1.5 -55.5t11.5 -41.5h229q27 0 39 -12q0 -10 1 -18.5t1 -18.5 q0 -23 -10 -39q-10 -2 -22.5 -3t-24.5 -1h-127h-41q-18 0 -39 -2q-14 -14 -13 -45t1 -49q0 -141 -1 -279.5t-1 -279.5q0 -45 14 -67.5t36.5 -34t53.5 -14.5t66 -9q8 -8 8 -23q0 -14 -10 -18l-3 -6q-14 -8 -38 -8q-39 0 -78 6t-78 6q-59 0 -118.5 -6t-119.5 -6q-10 0 -31.5 2 t-21.5 18z" />
<glyph unicode="g" horiz-adv-x="1054" d="M98.5 -217q12.5 33 41 69.5t74.5 74.5t116 73q-22 -2 -43 -2q-86 0 -134 35q-60 43 -61 110q-2 29 26.5 58.5t71.5 54.5t92.5 44t88.5 28q-47 25 -90 52.5t-76 62t-51.5 78.5t-18.5 100q0 76 30 135t79 99t113.5 61.5t136.5 21.5q55 0 103 -16.5t99 -38.5 q25 -10 46.5 -24.5t54.5 -31.5q29 -15 59 -14q12 0 25 2q43 8 90 8q23 0 29 -19.5t6 -35.5q0 -20 -15.5 -29.5t-37 -11.5t-46 -1t-43.5 1q-16 0 -13 -2t-9 -12q4 -23 6 -37t2 -39q0 -23 -2 -36t-10 -36q-29 -98 -102.5 -164.5t-178.5 -81.5q-33 -4 -83 -13t-96 -24.5 t-79 -40t-33 -57.5q0 -41 35 -56t86 -16q6 0 13 -1q46 0 97 7q58 7 107 11q20 2 40 2q56 0 113 -13q77 -17 137 -58.5t98 -106t38 -150.5v-9q0 -118 -48 -192q-50 -77 -129 -119t-172 -56.5t-179 -14.5q-84 0 -161 24.5t-134 66.5t-90 100q-31 54 -31 117q0 30 12.5 63z M248 -289q0 -43 26.5 -81t69.5 -66.5t97.5 -45t107.5 -16.5q63 0 126.5 18.5t115 51.5t83 77t31.5 97q0 123 -84 179q-81 54 -238 55h-12q-154 0 -238.5 -67t-84.5 -202zM293 627q4 -47 17.5 -94.5t39 -83t66.5 -55.5q31 -15 71 -15q13 0 27 2q59 6 97 26.5t57.5 54.5 t25.5 79q4 27 4 57q0 20 -2 43q-6 51 -19 95t-39 75t-68 45q-29 10 -68 10q-17 0 -35 -2q-53 -6 -87 -32.5t-54.5 -62.5t-27.5 -75q-6 -30 -6 -54q1 -7 1 -13z" />
<glyph unicode="h" horiz-adv-x="1189" d="M72 10q0 14 14 22.5t33.5 12.5t39 7t29.5 9q27 16 34 54.5t7 66.5v1178q0 31 -21.5 49t-46 30.5t-46 21.5t-21.5 22q0 10 9.5 18t19.5 10q37 4 100.5 28t145.5 56q1 0 2 1l14 -11q2 -4 3 -39t1 -86t1 -112.5t1 -116.5v-430q0 -8 4 -21q35 31 69 61.5t70.5 54.5t78.5 38 t94 14q92 0 147 -30.5t85 -83t38 -122t8 -145.5v-383q0 -10 2 -21t2 -22q0 -16 3 -35.5t16 -31.5q10 -10 29.5 -17.5t40 -12.5t35.5 -10t20 -11q0 -12 -5 -17h-2q-4 -16 -11 -19t-23 -3q-45 0 -89.5 6t-89.5 6q-47 0 -91 -6t-91 -6q-18 0 -39.5 2t-21.5 26q0 20 23.5 23.5 t52 9.5t52 27.5t23.5 81.5v510q0 86 -60.5 125.5t-139.5 39.5q-164 0 -228 -155q0 -135 -2 -268.5t-2 -268.5q0 -43 17.5 -60.5t43 -23.5t54 -8t53.5 -16q4 -16 4 -19q0 -23 -16.5 -24.5t-32.5 -1.5q-47 0 -93 6t-93 6h-58q-14 0 -27.5 -1t-27.5 -3q-25 -2 -50.5 -5 t-49.5 -3q-16 0 -28.5 3t-12.5 23z" />
<glyph unicode="i" horiz-adv-x="641" d="M76 14q0 6 4 11l8 8q18 14 42 17t46.5 6t39.5 14.5t24 44.5q4 20 4 28v31q1 44 1 86q0 21 -0.5 42t-0.5 42q0 42 2 86q2 49 5 97t3 98q0 25 -3 59.5t-20 54.5q-10 12 -28.5 20.5t-35.5 15.5t-30.5 14.5t-13.5 17.5t12 18.5t29.5 15.5t34 12t24.5 7q14 4 41 18.5t54.5 30 t50 27.5t30.5 12q12 0 13 -10q0 -31 -1 -60.5t-3 -60.5q-2 -61 -3.5 -123.5t-1.5 -124.5q0 -76 1.5 -150.5t3.5 -150.5q0 -35 -1 -70q0 -7 -1 -15q0 -29 4 -56q4 -43 27.5 -57.5t51 -19.5t50 -10t22.5 -30q0 -23 -21.5 -24.5t-35.5 -1.5q-37 0 -73 5t-71 5q-53 0 -108 -5 t-109 -5h-22q-16 0 -30.5 3.5t-14.5 26.5zM211 1423q0 43 35 76t78 33q47 0 78.5 -32t31.5 -79q0 -45 -34.5 -76.5t-77.5 -31.5q-47 0 -79 31.5t-32 78.5z" />
<glyph unicode="j" horiz-adv-x="552" d="M6 -510q4 8 10.5 15.5t12.5 15.5q35 41 68.5 79t60.5 87q29 55 41 112.5t16 117.5q3 48 3 97v24q-1 60 -1 120q0 111 1 222.5t1 221.5q0 23 -1 58.5t-11 54.5q-12 25 -33.5 35t-42 15t-36 10t-15.5 22q0 12 10 22q12 8 52 28.5t85 43t83 40t48 17.5q12 0 19 -8 q0 -14 1 -27.5t1 -27.5q0 -184 -1 -363.5t-1 -363.5q0 -66 -3 -135.5t-12 -135.5q-16 -129 -91.5 -224t-176.5 -167q-10 -8 -31.5 -21.5t-35.5 -13.5h-4q-4 8 -7.5 15.5t-9.5 13.5zM178 1423q0 47 31 80t78 33t78.5 -30.5t31.5 -78.5q0 -47 -31.5 -79.5t-78.5 -32.5 q-43 0 -76 32.5t-33 75.5z" />
<glyph unicode="k" horiz-adv-x="1193" d="M72 14q0 14 14 19.5t34.5 9.5t43 12t39.5 27q18 23 26.5 69t9.5 100q1 27 0.5 54t-0.5 53q-1 53 -1 91v921q0 39 -25 64.5t-52.5 40t-47 21.5t-7.5 11q33 12 58.5 21.5t53.5 23t62.5 30.5t90.5 46q4 2 7.5 2t6.5 -2q6 -4 8 -13t3 -19.5t1 -16.5q0 -262 -1 -514t-1 -514 q0 -14 15 -14q16 0 49 18t71.5 46t78.5 61.5t73 64.5t54.5 54.5t21.5 31.5q0 18 -18.5 27.5t-42 15.5t-42 14.5t-18.5 26.5q0 16 19.5 20.5t31.5 4.5q68 0 136.5 -4.5t136.5 -4.5q27 0 52 3.5t52 3.5q16 0 20 -2l15 -17q0 -20 -19.5 -32.5t-36.5 -16.5q-61 -10 -116.5 -35.5 t-106.5 -59.5t-98 -74t-94 -79q-6 -4 -17.5 -13t-13.5 -18q4 -8 9 -15t11 -13v-2q41 -41 79 -83t77 -85q41 -45 84 -97.5t89 -100.5t93 -84t95 -48q18 -4 28.5 -13t10.5 -30q0 -14 -20.5 -16t-29.5 -2q-47 0 -92 7t-90 7q-53 0 -106.5 -7t-106.5 -7h-14q-16 0 -30.5 4 t-14.5 22q0 20 19.5 25.5t43 8.5t43 11t19.5 33q0 20 -17.5 45t-42 51.5t-51.5 51t-45 45.5q-12 14 -40 46.5t-57.5 67.5t-57 62.5t-40.5 31.5q-27 -6 -38 -1.5t-11 -22.5v-275q0 -10 1 -26.5t2 -33.5t5.5 -33.5t10.5 -24.5q14 -18 34.5 -22.5t41 -6.5t35 -7t14.5 -26 q0 -20 -19.5 -23t-34.5 -3q-39 0 -76.5 7t-78.5 7q-47 0 -93.5 -8t-93.5 -8h-8q-20 0 -41.5 4.5t-21.5 27.5z" />
<glyph unicode="l" horiz-adv-x="647" d="M72 6q0 27 12 30t39 11q35 10 65.5 23.5t44.5 50.5q6 16 8.5 40.5t2.5 43.5q0 276 2 543.5t2 543.5q0 31 -3 67t-26 60q-8 8 -23 17l-31 16q-15 8 -27.5 16.5t-12.5 18.5v8q0 4 4 6q31 8 76 23.5t88 33t72.5 31t29.5 15.5l13 -9q0 -29 1 -55.5t1 -54.5q0 -336 -1 -663.5 t-1 -663.5q0 -68 35.5 -85.5t91.5 -23.5q4 -4 9 -3t9 1q33 0 33 -31q0 -23 -21 -28q-2 -2 -10 -2h-8q-47 0 -95.5 5t-95.5 5q-59 0 -116.5 -6t-116.5 -6q-10 0 -30.5 3t-20.5 19z" />
<glyph unicode="m" horiz-adv-x="1837" d="M76 18q0 8 15 15.5t35.5 11.5t40 8t28.5 8q23 14 33 48t13 72q2 28 2 57v19q-1 38 -1 60q0 59 2 118t2 118v39q0 39 -4 85t-15 58q-6 6 -21.5 14.5t-32.5 17.5t-29.5 18.5t-12.5 17.5q0 14 12.5 22.5t28.5 16.5q14 8 47 25.5t70 36t68.5 32.5t43.5 14q16 0 18.5 -19.5 t2.5 -31.5q0 -20 -1 -39.5t-1 -40.5q0 -18 2 -22q66 59 143.5 106t169.5 47q37 0 75 -11t74 -30.5t64.5 -46t44.5 -59.5q4 -8 7.5 -15.5t9.5 -13.5q33 31 67.5 61.5t73.5 55t81 40t89 15.5q23 0 42 -3t40 -7q66 -16 108.5 -50t68.5 -82t36 -105.5t10 -118.5q0 -59 -2 -119 t-2 -119v-205q0 -59 24.5 -77.5t54.5 -22.5t54.5 -6t24.5 -27q0 -16 -21.5 -19t-32.5 -3q-57 0 -108 6q-16 2 -45 4t-45 2q-61 0 -107.5 -4t-107.5 -4h-10q-14 10 -5 41q25 10 43 10q10 0 21.5 1t21.5 3q51 6 64 57q10 39 13 80t3 82v352q0 104 -59 158.5t-160 54.5 q-47 0 -82 -13t-73 -42q-16 -10 -36 -27.5t-30 -33.5q-4 -6 -7 -32t-4 -58.5t-2 -69.5t-1 -66v-366q0 -29 15 -43.5t37.5 -22.5t48.5 -10t44 -4q8 -4 15.5 -12.5t7.5 -18.5q0 -16 -18.5 -18t-29.5 -2q-20 0 -39.5 2t-39.5 4q-29 2 -58.5 3t-58.5 1h-64q-16 0 -30.5 -1 t-30.5 -3q-23 -2 -43.5 -4t-42.5 -2q-25 0 -31 2q-8 8 -8 16q0 14 2 21.5t19 11.5q20 4 41.5 7t41 9t34 19.5t20.5 38.5q8 25 8 65q0 104 1 204.5t1 205.5q0 27 -1 54.5t-7 53.5q-16 72 -77.5 102.5t-127.5 30.5q-39 0 -78 -10t-71.5 -30.5t-55 -52.5t-26.5 -75 q-3 -44 -4 -89q0 -11 0.5 -22t0.5 -23q0 -45 -4 -89q-2 -18 -2 -37v-37v-118q0 -35 2 -73t9 -60q12 -35 37.5 -46.5t52 -16.5t46 -9t19.5 -25q0 -23 -20.5 -26.5t-36.5 -3.5q-35 0 -71 6t-70 6q-66 0 -133.5 -6t-133.5 -6q-12 0 -18 12t-6 22z" />
<glyph unicode="n" horiz-adv-x="1200" d="M76 14q0 12 14 19.5t34.5 12.5t40 12.5t30.5 19.5q16 23 21 62.5t5 68.5v422q0 49 -8 84q-4 23 -21.5 35t-37 19t-35 12t-15.5 18v4q8 14 23 24q8 6 44 29t78 46.5t75.5 43t37.5 19.5q8 0 15.5 -10.5t7.5 -16.5q0 -8 -2 -16.5t-2 -16.5v-110l4 -2q6 2 16 12 q70 59 141.5 101t166.5 42q82 0 136 -26.5t87 -72.5t45 -110.5t12 -138.5q0 -41 -2 -80t-2 -80v-299q0 -70 41 -86t100 -16q10 0 13.5 -9.5t3.5 -19.5q0 -8 -3 -16t-18 -8q-29 0 -56.5 3t-55.5 3h-154q-16 0 -32.5 -1t-32.5 -3t-33 -3t-33 -1q-12 0 -35.5 3t-23.5 21 q0 20 16 27.5t39.5 10.5t47.5 8t38 24q16 20 18 55t2 60q2 45 2 88v88v176q0 53 -5 104t-24.5 91t-58.5 64.5t-104 24.5q-47 0 -85 -13t-79 -36q-18 -10 -46 -26.5t-38 -36.5q-4 -12 -7 -38t-5 -58.5t-2 -67.5v-66v-333q0 -41 18 -68q23 -31 52.5 -35t58.5 -4q16 0 33 -6 q12 -4 12 -23q0 -16 -8 -24q-16 -6 -21.5 -7t-23.5 -1q-45 0 -88 5t-86 5q-53 0 -103.5 -5t-103.5 -5q-16 0 -27.5 5t-11.5 23z" />
<glyph unicode="o" horiz-adv-x="1183" d="M102 442q0 104 36 196.5t100.5 161t153.5 109.5t196 41q154 0 275.5 -79.5t180.5 -223.5q16 -43 26.5 -88t10.5 -92q0 -104 -35.5 -197.5t-99 -163t-154 -110.5t-196.5 -41q-109 0 -200 35t-156.5 99.5t-101.5 153t-36 199.5zM289 483q0 -72 16.5 -151.5t53 -147 t97 -111.5t146.5 -44q82 0 137.5 36.5t89 95t48 129t14.5 138.5q0 57 -9.5 118.5t-30 119t-55 105.5t-85.5 81q-29 20 -64 24.5t-69 4.5q-78 0 -133.5 -38t-90.5 -96.5t-50 -129.5t-15 -134z" />
<glyph unicode="p" horiz-adv-x="1198" d="M37 -518q0 10 19.5 16t44 12.5t50 14.5t37.5 22q20 10 23.5 34t3.5 50v27q0 242 5 480.5t5 479.5v37v19q0 10 -2 20q-4 49 -25.5 68.5t-46 27t-44 12.5t-19.5 27q0 6 13.5 12.5t17.5 10.5q41 18 82 31.5t82 34.5q6 4 19 12t27.5 17t27 16.5t18.5 7.5q12 0 15 -13.5 t3 -21.5q0 -23 -4 -44.5t-4 -43.5q0 -20 8 -29q2 0 3 -1t5 -1q10 0 17.5 5t15.5 9q25 16 56.5 32t65.5 28t67.5 20.5t62.5 8.5q90 0 166 -34t130 -92.5t84 -136t30 -165.5q0 -104 -36 -196.5t-99.5 -163.5t-151.5 -113t-191 -44q-41 0 -67.5 4.5t-47 9.5t-41 9t-48.5 4 q-25 0 -30 -21.5t-5 -46.5v-26q0 -74 2 -148.5t2 -148.5v-19q0 -12 2 -18q2 -10 3 -17.5t7 -15.5q10 -16 36 -22t54.5 -9.5t52 -4.5t29.5 -5q10 -10 11 -22q0 -23 -21.5 -28t-38.5 -5q-49 0 -99 6t-100 6q-55 0 -109 -7t-110 -7q-27 0 -45 3t-18 36zM380 303q1 -55 5 -102 t12 -64q12 -23 36 -39t51.5 -27.5t57 -17.5t52.5 -6q82 0 145.5 29.5t107.5 80t66.5 119t22.5 146.5t-26.5 147.5t-75 122.5t-115 84t-146.5 31q-18 0 -51 -4t-63.5 -13.5t-54 -25.5t-23.5 -41v-240q0 -25 -1 -74q-1 -25 -1 -51.5t1 -54.5z" />
<glyph unicode="q" horiz-adv-x="1193" d="M102 420q0 111 38 203t124 163q68 59 162 100.5t186 41.5h43q29 0 62 -8.5t63.5 -19.5t56 -19.5t42.5 -8.5q4 0 18 4.5t18 6.5q2 6 10.5 17t17.5 22.5t18.5 19.5t13.5 8q14 0 33 -8q4 -20 4 -41t-4 -42q-8 -42 -9 -87q0 -33 1 -63.5t1 -63.5q0 -129 -2 -257t-2 -257v-485 q0 -23 1 -46.5t8 -45.5q8 -27 30.5 -37.5t46 -15.5t42 -11t18.5 -22q0 -18 -20.5 -22.5t-32.5 -4.5t-24.5 1t-25.5 3q-41 4 -83 6t-83 2h-40h-21q-8 0 -18 -2q-27 -2 -51.5 -6t-51.5 -4q-16 0 -30.5 2t-14.5 22t19.5 27.5t46 13t55.5 17.5t45 43q21 38 21 87q0 20 -1.5 57 t-1.5 52q0 43 1.5 86t1.5 86v68q0 41 -9 66q-8 -4 -15 -10.5t-15 -10.5q-51 -35 -108.5 -56.5t-119.5 -21.5q-96 0 -180 34t-147.5 94.5t-100.5 143.5t-37 179zM283 471q0 -135 58 -239.5t194 -149.5q55 -18 112 -19q23 0 52.5 5.5t58 16.5t50 29.5t28.5 45.5q4 20 3 40.5 t-1 41.5q0 66 1 128t1 128q0 70 -6.5 134t-30 113.5t-71.5 78t-132 28.5q-80 0 -139.5 -33t-99 -86t-59 -121.5t-19.5 -140.5z" />
<glyph unicode="r" horiz-adv-x="864" d="M76 14q0 20 20.5 25.5t45 10.5t48 17.5t29.5 47.5q8 41 10 82t2 82q0 80 -1 147.5t-1 146.5q0 27 -1 55.5t-11 53.5q-8 25 -24.5 37t-32 20.5t-28.5 16.5t-15 24q4 10 14 16.5t19 10.5q20 10 39.5 20.5t39.5 22.5q14 8 33 22l37 29q18 14 36.5 25.5t33.5 13.5q2 1 4 1 q3 0 6 -2q4 -3 8 -5q4 -8 6 -24.5t2 -37.5v-63q2 8 29 28.5t67.5 43t90 40t98.5 17.5q45 0 74.5 -15.5t48 -39t26 -52t7.5 -55.5q0 -23 -8.5 -44t-26 -33.5t-44 -11.5t-61.5 26q-16 10 -21 30.5t-11.5 41t-16.5 36t-37 15.5q-43 0 -82 -15.5t-69.5 -39t-49 -54.5t-18.5 -61 v-498q0 -16 2 -27q4 -35 21.5 -55t42 -30.5t54.5 -12.5t58 -2q18 0 19 -37q0 -14 -11.5 -17t-21.5 -3q-51 0 -101.5 7t-101.5 7q-57 0 -114.5 -7t-114.5 -7q-12 0 -29.5 6t-17.5 24z" />
<glyph unicode="s" horiz-adv-x="788" d="M102 668q0 74 24 127t64.5 86.5t97 50t122.5 16.5q47 0 104 -14t92 -51q8 -8 14.5 -17.5t6.5 -21.5q0 -70 -6 -133q-2 -12 -5.5 -23.5t-19.5 -11.5q-12 0 -22.5 32.5t-32 70.5t-61.5 71t-111 33q-61 0 -93 -45t-32 -107q0 -45 33.5 -81t86 -68.5t112 -66.5t111.5 -74 t86 -89t34 -112q0 -45 -23 -101q-41 -98 -119 -141t-178 -43q-25 0 -70 5t-90 18.5t-77.5 35t-32.5 54.5l2 69q0 23 -1 45.5t-1 50.5q2 10 11 12.5t17 2.5q12 0 17.5 -8.5t9.5 -18.5q16 -37 33.5 -73.5t41 -64.5t55.5 -45.5t79 -17.5q74 0 119 45.5t45 122.5q0 51 -33 87 t-82 67t-106.5 58.5t-106.5 64.5t-82 85t-33 118z" />
<glyph unicode="t" horiz-adv-x="739" d="M51 817q0 4 1 6t1 6q8 6 25.5 15.5t39 23t44 28.5t41.5 34q25 23 39 36t24 25.5t22.5 28.5t30.5 47q8 18 27 18q14 0 15 -11t4 -21q-2 -6 -3 -21v-74q0 -14 1.5 -20t3.5 -16q18 -4 41.5 -5.5t49.5 -0.5l51 3q26 1 44 1h20q23 0 52.5 -2.5t33.5 -6.5q12 -4 15.5 -16 t3.5 -23q0 -10 -4 -20t-6 -21q-8 -10 -31 -11t-33 -1q-41 0 -79 2t-76 2q-14 0 -40 -1t-36 -11q-10 0 -11 -8q-8 -14 -8 -37q-3 -56 -3 -116v-30q1 -77 1 -147q0 -61 -1 -122.5t-1 -123.5q0 -66 40 -104.5t106 -38.5q55 0 84.5 19.5t72.5 46.5q23 0 23 -21 q0 -33 -21.5 -58.5t-46.5 -43.5q-39 -29 -89 -42.5t-99 -13.5q-127 0 -180.5 72t-53.5 190q0 129 3.5 251t3.5 251q0 37 -23 48.5t-48.5 12.5t-48 2t-22.5 19z" />
<glyph unicode="u" horiz-adv-x="1161" d="M57 879q0 12 15 20q6 2 24.5 4t38.5 2q23 0 43.5 1t30.5 1q35 4 71.5 8.5t71.5 4.5q16 0 18.5 -24t2.5 -34v-327q0 -61 -1 -123t-1 -123q0 -100 37.5 -156.5t142.5 -56.5q43 0 75.5 7t59.5 23.5t50.5 41t49.5 59.5q2 20 3.5 41.5t2.5 51.5t1 71v104v203q0 29 -2.5 57.5 t-8.5 57.5q-4 18 -23.5 28t-43 14.5t-44 7.5t-26.5 7q-10 0 -24.5 5t-14.5 19q0 10 19 21q4 2 43 5t86 7t89 7.5t52 3.5q41 0 52 -11.5t11 -54.5q0 -88 -2 -176l-4 -176q0 -86 -1 -172t-1 -172q0 -27 13.5 -45.5t42.5 -18.5q47 0 81 8q10 2 22.5 0t12.5 -20q0 -10 -12 -19.5 t-20 -13.5q-4 -2 -34 -11t-66 -20.5t-68.5 -20.5t-40.5 -11q-4 0 -14.5 -3.5t-24 -6.5t-26.5 -5t-19 0t-8.5 15.5t-2.5 29.5t1 31.5t1 22.5v34q0 27 -8 19l-65 -58q-33 -29 -69 -52t-76 -38.5t-85 -15.5h-39q-76 0 -123 28.5t-73.5 76t-36.5 107.5t-10 126q0 111 2 220.5 t2 219.5q0 53 -13.5 80t-74.5 27q-8 4 -19.5 6t-20.5 4t-15.5 8.5t-6.5 18.5z" />
<glyph unicode="v" horiz-adv-x="1077" d="M20 891q0 12 10.5 19.5t20.5 7.5q6 2 53 2h95q51 0 98 -1t68 -1q20 0 40.5 1t40.5 1h23q8 0 25 -5l10 -16q-2 -10 -4 -17.5t-13 -11.5q-12 -6 -34.5 -7t-43 -4t-36 -11t-15.5 -29q0 -14 5.5 -27.5t9.5 -27.5l69 -176q35 -88 72 -176q27 -72 61 -142q4 -4 7.5 -11t11.5 -7 q10 0 18.5 17.5t12.5 25.5q10 20 27.5 61t37 93.5t41 109.5t37.5 108.5t27.5 91.5t11.5 56q0 18 -15.5 28.5t-36 16.5t-42 8t-33.5 2q-4 4 -9 10.5t-5 14.5q0 20 17 23.5t32 3.5q18 0 35.5 -2t35.5 -2h101q23 0 47 2t47 2h20q16 0 36 -6.5t20 -22.5q0 -12 -9.5 -18.5 t-19.5 -10.5q-23 -6 -43 -8t-39 -18q-20 -16 -33.5 -37t-23.5 -43q-80 -174 -147.5 -348t-137.5 -353q-2 -6 -8 -22.5t-14.5 -34.5t-16.5 -31.5t-14 -13.5q-8 0 -14.5 5t-10.5 9q0 2 -13 32t-28.5 66.5t-30 70.5t-18.5 44q-57 123 -110.5 245t-108.5 245q-16 35 -29.5 68.5 t-29.5 66.5q-12 23 -35 32t-46.5 15t-40 12.5t-16.5 24.5z" />
<glyph unicode="w" horiz-adv-x="1615" d="M20 891q0 25 19.5 28t38.5 3q117 0 233.5 -2t233.5 -2t234.5 1t234.5 1q6 0 16 -6.5t10 -22.5q0 -23 -10 -27t-31 -6q-10 0 -29.5 -1t-39 -5t-33.5 -13.5t-14 -23.5q0 -12 12 -47t30.5 -81t41 -98t44 -100.5t39 -87.5t25.5 -57q2 -6 8.5 -22.5t13.5 -35t15 -31.5t14 -13 t14 14l9 18q8 16 25.5 59.5t38 97.5t44 113.5t42 111t30.5 89t12 48.5q0 33 -27.5 47t-53.5 18q-8 2 -20.5 1t-20.5 3q-10 4 -11.5 12.5t-1.5 18.5q0 4 1 8t7 14q12 4 21 5h20q41 0 80 -3.5t80 -3.5q39 0 76 3.5t76 3.5q10 0 19 -5.5t9 -15.5q0 -4 -3 -20.5t-19 -20.5 q-4 -2 -14 -2q-8 0 -13 -2q-41 -6 -65.5 -30.5t-40.5 -59.5q-47 -100 -91 -199.5t-89 -204.5q-29 -63 -56.5 -125.5t-54.5 -128.5q-10 -23 -18.5 -44t-16.5 -44q-4 -10 -6 -22t-6 -23q-8 -14 -21 -14q-12 0 -24.5 11.5t-18.5 21.5q-6 8 -16 33.5t-21.5 55.5t-20.5 57.5 t-13 41.5l-54 148q-27 74 -61 143q-6 12 -13.5 21.5t-19.5 17.5q-10 0 -14 -6l-8 -12q-23 -35 -36 -72t-30 -74q-41 -94 -79 -188.5t-79 -188.5q-10 -8 -22 -8q-16 0 -24.5 15.5t-12.5 27.5q-29 72 -57.5 141.5t-57.5 141.5q-47 111 -95 219t-97 219l-21 45q-10 23 -24.5 41 t-33.5 30.5t-48 16.5q-18 2 -39 3t-21 30zM360 813q0 -6 5 -10q0 -12 5 -24.5l9 -22.5q31 -80 62.5 -156t66.5 -149q23 -47 38 -96.5t38 -94.5q4 -12 18 -22q8 2 23.5 28.5t34 65.5t39 85t38 87t27.5 72.5t10 41.5q0 35 -19.5 72t-33.5 68q-12 27 -24.5 52.5t-41.5 37.5 q-10 4 -30.5 7t-43 4t-43 2t-32.5 1h-49q-27 0 -47 -6q-12 -4 -31 -15.5t-19 -27.5z" />
<glyph unicode="x" horiz-adv-x="1042" d="M31 10q0 10 10 17.5l18 13.5l35 17q18 9 43 32q23 20 42.5 41t39.5 43q45 51 90 100.5t84 104.5q2 2 7.5 10t11.5 16.5t10 15.5t4 9q0 4 -18.5 31.5t-47 66.5t-63.5 84t-65.5 85t-55.5 71l-33 41q-6 8 -24.5 21.5t-28.5 17.5q-16 8 -37.5 14t-21.5 31t20 27l21 4h22 q35 0 71 -2t71 -2t69.5 1t69.5 1q16 0 34.5 1t34.5 -3q20 -2 21 -25q0 -16 -11.5 -20.5t-26.5 -7.5t-33.5 -7t-31.5 -16q-10 -10 -10 -21q0 -18 22.5 -56t53.5 -80t62.5 -78t48.5 -48q12 6 41.5 42t59.5 79t52.5 83t22.5 54q0 18 -10.5 25.5t-24.5 10.5t-26.5 4t-18.5 5 q-8 2 -15.5 4t-13.5 4l-8 13q2 23 11 30t30 7q41 0 82 -3.5t82 -3.5q35 0 71.5 4.5t71.5 4.5h17q16 0 32.5 -4.5t16.5 -16.5q0 -10 -6.5 -21.5t-22.5 -15.5q-12 -2 -30.5 -6t-39 -11t-41 -17.5t-34.5 -22.5q-10 -10 -19.5 -20.5t-19.5 -20.5q-37 -41 -71 -82t-69 -84 l-32 -41q-16 -20 -35 -39q-2 -8 -6 -12t0 -14q2 -8 19.5 -34t41 -59.5t52 -71.5t53 -71t44 -57.5t25.5 -28.5q31 -37 64 -77t73 -52q14 -6 29 -6q16 -2 20.5 -14.5t4.5 -22.5t-16.5 -13t-32.5 -3h-15q-51 0 -95 5t-97 5q-37 0 -74 -5t-76 -5q-12 0 -31.5 2t-19.5 20 q0 10 5 22.5t15 12.5q8 0 27 1t36 5t28.5 13.5t7.5 25.5q-2 6 -26.5 45t-55.5 84t-57.5 83t-32.5 44q-4 8 -10.5 13t-12.5 12q-16 -4 -46 -39t-60.5 -79t-53 -86t-22.5 -56q0 -35 20.5 -46.5t44 -16.5t42 -13t14.5 -33q-4 -10 -21.5 -11t-38.5 -1q-39 0 -77.5 3t-79.5 3 q-10 0 -21.5 -1t-27.5 -1t-43 -1t-66 -1q-10 2 -11 8t-1 12z" />
<glyph unicode="y" horiz-adv-x="1099" d="M20 887q0 33 39 33q49 0 98.5 -5.5t98.5 -5.5q51 0 102 4q34 3 69 3l34 -1h31q14 -8 14 -24q0 -23 -15.5 -28t-31.5 -5q-14 0 -31.5 -2t-34 -8t-28 -17.5t-11.5 -29.5q0 -14 13.5 -55t33 -97.5t44 -122t47 -125t41 -107.5t26.5 -71q4 -8 6 -15t8 -11q12 6 19 24 q10 25 31.5 70t48 101.5t53.5 116.5t49.5 114.5t36.5 96.5t14 62q0 37 -22.5 50.5t-49 19.5t-49 11t-22.5 28q0 16 7 20t20 4q37 0 72.5 -1t70.5 -1q41 0 81 2.5t81 2.5q20 0 42.5 -1.5t22.5 -29.5q0 -25 -25.5 -29t-54.5 -20q-25 -14 -40 -42t-25 -53q-31 -68 -63.5 -135 t-63.5 -135q-74 -160 -144.5 -314.5t-140.5 -314.5q-43 -104 -93 -214.5t-105 -215.5q-6 -9 -19 -9h-3q-15 1 -30.5 9t-24.5 20.5t-5 22.5q57 123 116.5 254t114.5 254q4 20 -7 49t-17 47q-66 184 -130.5 365.5t-146.5 355.5q-14 31 -40 46.5t-50.5 22.5t-43 13.5 t-18.5 22.5z" />
<glyph unicode="z" horiz-adv-x="952" d="M59 18q0 10 4.5 16.5t8.5 14.5q16 25 36.5 47.5t38.5 44.5q92 117 177.5 235t171.5 236q12 18 36.5 50t49 66t46 64.5t27.5 47.5q2 8 -14 11t-39.5 4t-46.5 0t-35 -1h-63q-53 0 -111.5 -1t-99.5 -11q-35 -6 -54.5 -24.5t-35 -39t-29.5 -36t-39 -15.5q-10 0 -20.5 3 t-6.5 18q6 20 9.5 28t6.5 14.5t6 14.5t9 29q4 16 9 34.5t12 34.5q4 12 12 23.5t25 11.5q29 0 50 -9t66 -9h320q37 0 74.5 2t74.5 2h31q29 0 63.5 -4.5t44.5 -14.5q6 -8 6 -16q0 -7 -3 -15q-98 -135 -193.5 -265t-194.5 -265q-43 -59 -97 -128t-83 -134q-4 -10 15 -10h116 q43 0 92.5 1t95.5 6t80.5 12t49.5 20q14 12 22 33.5t13.5 43t10.5 42t15 30.5h10q20 2 26.5 -8t6.5 -29v-47q0 -25 -1 -53.5t-4 -54t-7 -45t-10 -23.5q-5 -10 -14 -10q-4 0 -8 3q-13 7 -27 7q-154 0 -297.5 -2t-296.5 -2h-29q-16 0 -34.5 1t-35 3t-28 7t-11.5 11z" />
<glyph unicode="{" horiz-adv-x="700" d="M43 592q45 12 88 28.5t76 41t53.5 57.5t20.5 78l-2 438q0 80 26.5 129t76.5 76.5t119.5 37t155.5 9.5q14 0 21.5 -12.5t7.5 -28.5q0 -14 -7 -27.5t-22 -13.5q-70 0 -115.5 -9.5t-73.5 -31t-39 -56t-11 -83.5v-402q0 -49 -4 -87t-19.5 -65.5t-44 -46t-78.5 -30.5 q49 -12 78 -32.5t44.5 -49.5t19.5 -66.5t4 -85.5v-516q0 -49 11 -83.5t39 -56t74 -31t115 -9.5q14 2 20.5 -10t5.5 -28.5t-7 -30t-19 -13.5q-86 0 -155.5 9.5t-118.5 37t-76.5 76.5t-27.5 129l2 553q0 45 -20.5 78t-53.5 57.5t-76 41t-88 28.5z" />
<glyph unicode="|" horiz-adv-x="415" d="M139 78q0 211 1 438t1 438q0 215 1 389.5t1 274.5q8 2 14.5 3t14.5 1h31q16 0 38.5 -1t34.5 -11q-4 -88 -5 -225.5t-1 -309.5q0 -137 1 -285.5t1 -302.5t1 -300t1 -277q0 -150 -1 -269.5t-5 -195.5q-18 0 -35.5 -1t-35.5 -1q-12 0 -26.5 1t-27.5 3q-2 88 -3 254t-1 377z " />
<glyph unicode="}" horiz-adv-x="700" d="M20 1446q0 16 7.5 28.5t21.5 12.5q86 0 155.5 -9.5t120 -37t77 -76.5t26.5 -129l-2 -438q0 -45 19.5 -78t53 -57.5t75.5 -41t90 -28.5q-47 -12 -89.5 -28.5t-76 -41t-53 -57.5t-19.5 -78l2 -553q0 -80 -27.5 -129t-77 -76.5t-119 -37t-155.5 -9.5q-12 0 -18 13.5t-7 30 t5 28.5t20 10q70 0 116 9.5t73.5 31t39 56t11.5 83.5v516q0 47 4 85t19.5 67t44 49.5t77.5 32.5q-49 12 -77.5 30.5t-44 46t-19.5 65.5t-4 87v402q0 49 -11.5 83.5t-39 56t-73.5 31t-116 9.5q-14 0 -21.5 13.5t-7.5 27.5z" />
<glyph unicode="~" horiz-adv-x="890" d="M47 911q8 14 16 33q31 80 88.5 123t145.5 43q45 0 88 -21.5t84 -48t81 -48t77 -21.5q59 0 96 40t61 87q20 -4 33.5 -14.5t30.5 -22.5q-12 -41 -33.5 -79t-50.5 -67.5t-68 -48t-84 -18.5q-49 0 -89 22.5t-77.5 48t-77.5 48t-89 22.5q-41 0 -65 -11t-42 -29.5t-34.5 -40 t-43.5 -42.5q-18 14 -47 45z" />
<glyph unicode="&#xa1;" horiz-adv-x="468" d="M100 -416q8 76 23.5 202t33 267.5t36 281.5t34.5 243q2 10 17.5 8t23.5 -8q10 -111 24.5 -239t30 -259t26.5 -259t16 -237q2 -31 -4.5 -41t-21.5 -11t-40 3t-61 4q-31 0 -55.5 -3t-43.5 -3q-23 0 -33 9t-6 42zM125 926q0 57 40 90t93 33q49 0 82 -39t33 -86 q0 -53 -36 -91t-89 -38q-49 0 -86 41t-37 90z" />
<glyph unicode="&#xa2;" horiz-adv-x="937" d="M102 741q-2 92 25 179.5t77 156t121.5 116.5t161.5 64v234q16 14 43 10t50 0v-65q0 -27 1 -53.5t1 -55.5v-61q35 0 83 -7.5t91 -24.5t73.5 -45t30.5 -71q2 -35 -20.5 -54.5t-55.5 -19.5q-29 0 -52 18.5t-45.5 44.5t-47.5 50.5t-55 36.5q2 -203 1 -399.5t1 -395.5h37 q53 0 100 22.5t88 55.5q10 8 19.5 15.5t19.5 13.5q12 -10 12 -25q0 -18 -14 -36.5t-25 -32.5q-12 -16 -33.5 -34t-47 -34t-51 -28.5t-44.5 -18.5q-16 -4 -30.5 -8t-30.5 -8q0 -47 1 -80t2 -62.5t2 -63.5t1 -81q-4 -4 -18.5 2t-43.5 6q-18 0 -41 -8v282q-92 4 -163.5 43 t-120.5 102.5t-76 146.5t-27 173zM262 799q0 -63 13.5 -126t41 -115t70.5 -91t102 -55v391v194q0 98 -2 199q-61 -14 -104 -55t-69.5 -96.5t-39 -120t-12.5 -125.5z" />
<glyph unicode="&#xa3;" horiz-adv-x="1171" d="M68 68q0 49 17 66.5t43 20.5t57.5 -1t62.5 4q35 8 74.5 30.5t73.5 54t55.5 69.5t19.5 75q-4 86 -34.5 173t-80.5 157q-20 -2 -41 -2h-43h-82q-14 0 -30.5 -1t-29.5 2t-22.5 11t-9.5 29q0 27 19.5 35t42.5 8q41 0 81 -2t81 -2q-29 63 -50.5 130.5t-21.5 139.5 q0 104 48 187t140 132q35 20 74 31.5t80 22.5q49 12 100 12q76 0 156 -24.5t139 -71.5q20 -16 35.5 -39t15.5 -51q0 -20 -8 -41t-14 -39q-4 -12 -9.5 -31.5t-12.5 -40t-16 -37t-22 -22.5q-33 4 -41 26.5t-8 50.5q0 39 -6 76q-6 45 -28.5 79t-56.5 56.5t-75 33.5t-84 11 q-104 0 -167.5 -60t-63.5 -165q0 -37 13.5 -86t31.5 -100t39.5 -98.5t38.5 -81.5h340q12 0 19 -9.5t7 -21.5t-2 -14q0 -18 -12 -27q-6 -4 -14 -5t-17 -1q-72 0 -142.5 -1t-141.5 -1q16 -47 29.5 -95.5t13.5 -97.5q0 -88 -47 -166q-20 -39 -47 -82t-62 -71q20 -4 31 -4 q20 0 31 -2q74 -10 145.5 -31t146.5 -21q55 0 94.5 20.5t68 44t48 44t35.5 20.5q6 0 10 -4q0 -4 1 -7t1 -7q0 -8 -7 -31.5t-16 -51.5t-18.5 -52.5t-13.5 -32.5q-18 -39 -37.5 -62.5t-43 -37t-54.5 -17.5t-74 -4q-66 0 -127 26.5t-113.5 57.5t-91 57.5t-59.5 26.5l-2 -6 q-31 -16 -60.5 -43t-60.5 -51.5t-64.5 -43t-72.5 -18.5q-43 0 -72.5 24t-29.5 71z" />
<glyph unicode="&#xa4;" horiz-adv-x="1544" d="M16 559q0 12 1 24.5t3 24.5h13q6 0 21.5 1t45.5 1h93q-14 66 -15 160v31q0 18 2 28q-41 2 -79 4.5t-78 4.5q0 18 -1.5 35.5t-1.5 35.5q0 12 1.5 24.5t3.5 24.5q16 0 62 1.5t110 1.5q27 131 92 234t161.5 174t219.5 107.5t264 36.5q70 0 138.5 -8t137.5 -22 q16 -4 38 -11.5t44 -13.5q14 -12 24.5 1.5t23 33.5t31 39.5t48.5 19.5q14 0 18.5 -20.5t4.5 -48.5q0 -29 -3 -59.5t-3 -53.5q0 -53 -2 -106.5t-7 -106.5q-4 -18 -10 -24.5t-14 -6.5t-15.5 2t-13.5 2q-12 0 -20 18.5t-14.5 44.5t-13.5 53.5t-19 47.5q-66 72 -161 110t-196 38 q-117 0 -205 -38t-150.5 -102.5t-101 -152.5t-57.5 -188h29q186 4 388 3t394 -3q6 -29 6 -58q0 -16 -1 -36.5t-11 -32.5q-41 4 -83 2t-83 -2l-653 -5v-57q0 -41 2 -81t6 -81h135q72 0 165 -1t218 -1h297q2 -8 3 -14t1 -14v-27q0 -16 -1 -36.5t-11 -33.5q-41 4 -83 2t-83 -2 h-84q-25 0 -62.5 -1t-99.5 -1q-59 0 -149 -1t-221 -1q25 -94 67.5 -176t106 -142.5t148.5 -95t194 -34.5q49 0 102 11t103.5 32.5t94.5 52.5t77 72q10 14 23 38.5t27.5 49t27 43t22.5 18.5q23 0 32 -8t9 -31q0 -16 -5 -53t-13.5 -77t-18.5 -72.5t-20 -43.5 q-35 -31 -92.5 -52t-123 -35.5t-134 -20.5t-124.5 -6q-139 0 -256.5 40t-211 111.5t-161 168t-106.5 210.5q-53 2 -108.5 4t-96.5 4q0 18 -1 36t-1 36z" />
<glyph unicode="&#xa5;" horiz-adv-x="1603" d="M20 1458q0 20 14.5 22.5t31.5 2.5q57 0 112 -8.5t113 -8.5q78 0 156.5 7.5t158.5 7.5q10 0 25.5 -10.5t15.5 -20.5q0 -31 -28.5 -36t-62.5 -6t-62.5 -6t-28.5 -34q0 -23 19.5 -57.5t45 -72.5t53 -74t46.5 -60q49 -72 98 -142.5t102 -136.5q6 -8 11.5 -15t15.5 -11 q6 2 13.5 8t11.5 10q12 12 43.5 54t73.5 98.5t87 121t83 120t62.5 94t24.5 47.5q0 35 -28.5 44t-62.5 11t-62.5 7t-28.5 34q0 25 11.5 28t31.5 3q47 0 94 -6.5t95 -6.5q53 0 105 7.5t106 7.5q29 0 52 -10.5t11 -36.5q-8 -16 -28.5 -21.5t-45 -9.5t-51.5 -14.5t-49 -36.5 q-76 -88 -146.5 -180.5t-142.5 -184.5q-41 -53 -93 -112.5t-91 -120.5h489q2 -8 3 -14.5t1 -14.5v-27q0 -16 -1 -39.5t-11 -35.5q-41 4 -83 5t-83 1h-69q-31 0 -70 -1t-92 -1h-131v-176h536q2 -8 3 -14.5t1 -14.5v-27q0 -16 -1 -39.5t-11 -36.5q-41 4 -83 5.5t-83 1.5h-69 q-31 0 -70 -1t-92 -1h-131v-117q0 -55 16.5 -85t41 -42t54 -14.5t57 -3.5t48 -6t28.5 -25q0 -18 -8 -32.5t-30 -14.5q-80 0 -161 7t-161 7q-74 0 -146.5 -7t-146.5 -7q-6 0 -14 2t-8 12q-10 31 12 42t58 16t74 11.5t60 30.5q8 8 13.5 33t8.5 57.5t5 68.5t2 65h-225 q-68 0 -134.5 2t-133.5 6q0 18 -1 35.5t-1 35.5q0 12 1 24.5t3 25.5h8q0 2 6 2h479v172h-227q-68 0 -134.5 2t-133.5 6q0 18 -1 35.5t-1 36.5q0 12 1 24t3 25q10 0 9 1t3 1h428q-104 150 -207.5 295t-208.5 295q-23 33 -57.5 47t-66 21t-54.5 14t-23 30z" />
<glyph unicode="&#xa6;" horiz-adv-x="415" d="M139 -14v344q37 27 68 21.5t65 -21.5q2 -55 2 -111v-106v-203q0 -150 -1 -269.5t-5 -195.5q-18 0 -35.5 -1t-35.5 -1q-12 0 -26.5 1t-27.5 3q0 33 -1 80t-1 113q0 63 -1 149t-1 197zM139 819q0 188 2 359.5t2 296.5v143q8 2 14.5 3t14.5 1h31q16 0 38.5 -1t34.5 -11 q-2 -33 -3 -75t-2 -99.5t-1 -132.5v-175v-309q-35 -23 -60.5 -25t-70.5 25z" />
<glyph unicode="&#xa7;" horiz-adv-x="1218" d="M84 670q39 150 145.5 222.5t241.5 74.5q29 82 82 137t121.5 86t148.5 35t162 -17l-20 -69h-4q-51 14 -101.5 11t-93.5 -23.5t-75 -57.5t-46 -92q-23 -84 15 -160t103.5 -146.5t142.5 -135t132 -127.5q68 -78 90.5 -180.5t-4.5 -202.5q-45 -166 -152.5 -248t-248.5 -88 q-63 -147 -183 -208t-270 -46l23 78q92 2 162.5 54t97.5 152q25 92 -8 170t-95.5 147.5t-137 137.5t-135 142.5t-91.5 161t-2 192.5zM272 721q-23 -84 14.5 -161t103 -147.5t142 -136t132.5 -126.5q66 -74 88 -170.5t2 -194.5q59 20 105 68.5t67 123.5q25 90 -6 165 t-89.5 142.5t-131 133t-134 137.5t-97.5 152.5t-19 181.5q-61 -14 -110 -55t-67 -113z" />
<glyph unicode="&#xa8;" horiz-adv-x="880" d="M109 1264q0 47 34.5 78.5t81.5 31.5q45 0 76 -34.5t31 -77.5q0 -47 -34 -76t-79 -29t-77.5 30t-32.5 77zM532 1266q0 47 31 77.5t80 30.5q47 0 78 -29.5t31 -76.5q0 -51 -34 -82t-83 -31q-6 0 -8 2q-43 4 -69 36t-26 73z" />
<glyph unicode="&#xa9;" horiz-adv-x="1812" d="M123 723q0 170 57.5 315.5t160.5 252t244.5 167t309.5 60.5q162 0 306.5 -56.5t253 -158t172 -242.5t63.5 -313q0 -164 -62.5 -310.5t-172 -256t-257 -174t-315.5 -64.5q-166 0 -306.5 58t-240.5 162.5t-156.5 247t-56.5 312.5zM281 764q-4 -123 31.5 -245t112.5 -221 t193.5 -162.5t274.5 -67.5q154 -4 270.5 53t195.5 151.5t121 213t46 239.5q4 131 -37 250t-121 208t-196.5 143t-262.5 58q-156 4 -272.5 -48t-194 -139t-118.5 -200.5t-43 -232.5zM483 743q0 98 31 176t87 130.5t134 80t170 27.5q66 0 154 -16q10 -2 21.5 -6.5t23.5 -8.5 q8 -6 13 1.5t12.5 19.5t17.5 22.5t27 10.5q14 0 14 -39q0 -14 -2 -31.5t-2 -30.5v-78q0 -23 -1 -42t-3 -35q-4 -20 -13.5 -17.5t-17.5 2.5q-6 0 -10 10.5t-8.5 24.5t-8.5 29.5t-10 27.5q-37 41 -89 61.5t-110 20.5q-80 0 -130 -25.5t-78.5 -69.5t-40 -106.5t-11.5 -136.5 q0 -80 11.5 -148.5t41 -119.5t83 -80.5t137.5 -29.5q55 0 114.5 24.5t96.5 69.5q6 6 12 20.5t14 28.5t15.5 24.5t13.5 10.5q23 0 22 -23q0 -10 -3 -35.5t-8 -54.5t-10 -52.5t-11 -29.5q-20 -16 -52 -28.5t-68 -20.5t-74 -11t-70 -3q-100 0 -180.5 36.5t-136.5 100t-87 145.5 t-31 174z" />
<glyph unicode="&#xaa;" horiz-adv-x="831" d="M103 485.5q1 20.5 1 73.5q0 10 31 12t60 2h34q117 0 234 -2t233 4q12 0 13 -36v-82q0 -10 -21.5 -13.5t-46.5 -3.5h-463q-25 0 -49.5 2t-24.5 9q-2 14 -1 34.5zM117 920q0 31 17.5 58.5t43 49t55 37.5t54.5 27q49 18 90 31.5t94 27.5v84q0 59 -21.5 88t-87.5 29 q-43 0 -69.5 -14.5t-41.5 -33t-21.5 -37t-8.5 -28.5q-8 -23 -30.5 -40t-51.5 -17q-16 0 -18 23.5t-2 35.5q0 35 26.5 73t67.5 69.5t90 52t96 20.5q20 0 55 -3t76 -32q45 -31 57.5 -67.5t12.5 -85.5q0 -55 -1 -111.5t-1 -112.5v-86q0 -27 2 -49t8 -30q4 -10 17.5 -13.5 t23.5 -3.5q33 0 43 15.5t27 19.5q8 4 12 -4t4 -14q0 -25 -13 -46.5t-32.5 -37t-44 -23.5t-47.5 -8q-47 0 -86 30.5t-49 73.5q-16 -23 -40 -43t-52.5 -35.5t-59 -25.5t-61.5 -10q-43 0 -69.5 13t-41 36.5t-18.5 53.5t-4 63zM250 922q0 -41 25.5 -51.5t70.5 -10.5 q31 0 47.5 15.5t38.5 37.5q10 12 23.5 31t15.5 35v59q0 31 -2 41q-29 -6 -68 -20.5t-63 -22.5q-39 -14 -63.5 -41.5t-24.5 -72.5z" />
<glyph unicode="&#xab;" horiz-adv-x="1171" d="M184 498q2 6 17 20q68 63 137.5 121.5t134.5 122.5q2 4 18.5 18.5t34.5 30.5q23 20 49 43q12 4 17 4q16 0 16 -18q0 -16 -31.5 -63.5t-73.5 -101.5t-81 -104.5t-53 -70.5q14 -23 54 -72t82 -103.5t74.5 -101.5t32.5 -67q0 -12 -12 -13q-6 0 -38 23.5t-76 60.5t-94 81 t-94 83t-76 69t-38 38zM553 500q2 4 12 14t22.5 20.5t22.5 20.5l15 14q47 43 96 86t96 88q29 27 58.5 53.5t52.5 57.5q16 4 20 4q18 0 19 -20q0 -18 -32 -63.5t-73 -97.5t-79 -101.5t-50 -75.5q35 -55 82 -115q16 -20 41 -49t48.5 -59.5t43 -62.5t25.5 -56q0 -4 -3 -10.5 t-7 -6.5q-6 0 -16.5 5.5t-16.5 9.5q-2 2 -12.5 11t-23.5 20.5t-23.5 20.5t-12.5 13q-43 43 -90 82t-92 80q-23 23 -45.5 43t-46.5 41q-8 6 -18.5 14.5t-12.5 18.5z" />
<glyph unicode="&#xac;" horiz-adv-x="1320" d="M61 618q0 12 1 24.5t4 25.5q14 2 26 2h27h1104q16 6 22 -9.5t4 -25.5q-2 -23 -1 -81t2 -122.5t0 -119t-7 -66.5q-4 -10 -22.5 -14.5t-40 -3.5t-39 8.5t-19.5 19.5q2 55 0 136t-4 149q-20 2 -43 2h-45h-74q-154 0 -304 -2t-304 -2q-68 0 -142.5 2t-142.5 6q0 18 -1 35.5 t-1 35.5z" />
<glyph unicode="&#xad;" d="M74 504.5q-2 25.5 24 70.5q188 0 359.5 -2t296.5 -2h143q4 -20 4 -30v-29q0 -16 -1 -35.5t-11 -32.5q-23 2 -49 2h-56h-153q-92 0 -222 -1t-311 -1q-22 35 -24 60.5z" />
<glyph unicode="&#xae;" horiz-adv-x="1179" d="M86 1184q0 111 37 205t103.5 162.5t157.5 107.5t200 39q104 0 198.5 -36t164 -101.5t110.5 -157.5t41 -203q0 -106 -40 -200.5t-110.5 -166t-166 -113.5t-203.5 -42q-109 0 -199 38t-155.5 105.5t-101.5 160.5t-36 202zM207 1210q-4 -76 17.5 -151.5t69.5 -137 t119.5 -100.5t170.5 -41q156 -6 250 86q-53 23 -96.5 62t-61.5 92q-12 20 -17.5 43.5t-14.5 42t-28.5 31t-60.5 12.5q-12 0 -12 -21v-145q0 -27 10 -35t31 -8q20 0 34.5 -10t17.5 -22.5t-6 -23t-34 -10.5q-29 0 -54.5 2.5t-52.5 2.5q-23 0 -47 -2.5t-47 -2.5q-12 0 -20 9.5 t-9 22t6 22.5t23 12q16 4 35 10t19 29l2 393q0 23 -15.5 26t-32.5 5q-16 2 -25 4t-11 20q-4 35 7 46.5t25 11.5h158q10 2 31 2h30q25 0 56 -7t57.5 -25.5t45 -49.5t18.5 -78t-26 -87t-62 -62q29 -16 47 -53.5t37 -77.5q18 -49 40.5 -91.5t51.5 -42.5q8 0 22.5 29t29.5 71 t26.5 89t13.5 84q2 82 -23.5 154.5t-75 128t-121 88t-161.5 36.5q-96 2 -168 -29.5t-120 -86t-72.5 -124t-26.5 -143.5zM541 1264q0 -16 5 -24.5t27 -8.5q59 0 84 23.5t25 72.5q0 35 -20.5 55.5t-71.5 20.5q-31 0 -39 -13.5t-8 -37.5q0 -16 -1 -31.5t-1 -56.5z" />
<glyph unicode="&#xaf;" horiz-adv-x="964" d="M234.5 1259.5q1.5 20.5 1.5 73.5q0 10 30.5 12.5t59.5 2.5h34q57 0 100.5 -1t82.5 -1h80q23 0 48 1t54 3q12 0 12 -37v-82q0 -10 -21.5 -13.5t-45.5 -3.5h-361q-25 0 -49 2.5t-24 8.5q-3 14 -1.5 34.5z" />
<glyph unicode="&#xb0;" horiz-adv-x="593" d="M96 1214q0 39 15.5 75t42 63.5t61.5 44t72 16.5q41 0 80 -16.5t69.5 -45t49 -66.5t18.5 -81t-17.5 -81t-46 -66.5t-67.5 -45t-82 -16.5q-8 0 -17 4q-37 2 -68.5 23.5t-56 52.5t-39 67.5t-14.5 71.5zM176 1212q0 -23 9.5 -46t24.5 -42.5t35.5 -33t43.5 -15.5q2 -2 10 -2 q55 0 95 39t40 94q0 53 -42 92t-95 39q-47 0 -84 -39t-37 -86z" />
<glyph unicode="&#xb1;" d="M74 58.5q-2 25.5 24 70.5q188 0 359.5 -2t296.5 -2h143q4 -20 4 -31v-28q0 -16 -1 -36t-11 -32q-23 2 -49 2h-56h-153q-92 0 -222 -1t-311 -1q-22 35 -24 60.5zM74 631.5q-2 25.5 24 70.5q43 -2 84 -2h82h158v326q35 23 60.5 25t70.5 -25q-2 -43 -2 -86v-82v-160h346 q4 -20 4 -30v-29q0 -16 -1 -35.5t-11 -32.5q-53 4 -132 3t-208 -1v-346q-20 -4 -31 -4h-29q-16 0 -35.5 1t-31.5 12q4 53 3 130.5t-1 204.5h-326q-22 35 -24 60.5z" />
<glyph unicode="&#xb2;" horiz-adv-x="815" d="M109 850q0 10 10 20q57 63 104 101.5t86 69t69 64.5t52 89q43 113 0 178.5t-147 65.5q-31 0 -51.5 -12.5t-35 -29t-25.5 -31.5t-24 -22q-12 -6 -23 2.5t-11 22.5q0 8 7 23.5t17 31t21.5 29.5t17.5 21q31 27 52.5 43t42 24t42 11t52.5 3q147 0 214.5 -93t24.5 -247 q-16 -59 -63 -109t-101.5 -89t-101.5 -62.5t-66 -31.5q27 -12 68 -16.5t82 -1.5t77 15.5t52 32.5q20 27 43.5 59.5t45.5 63.5t38 54.5t20 29.5q16 23 40 13.5t32 -27.5q-51 -82 -70.5 -145.5t-25.5 -106.5t-8 -65.5t-19 -22.5q-59 0 -98 4t-76 10t-79 12.5t-105 8.5h-35 q-8 0 -13 -1t-14 -1h-34q-8 0 -21.5 -17.5t-21.5 -13.5q-20 0 -30.5 8t-10.5 35z" />
<glyph unicode="&#xb3;" horiz-adv-x="593" d="M82 1452q-2 14 12.5 31.5t39 34t54 29t56.5 16.5q31 4 67.5 1t68.5 -16.5t54.5 -39t22.5 -66.5q0 -27 -17.5 -57.5t-42 -59.5t-51.5 -52.5t-43 -35.5q51 6 95 -9.5t75 -44t48.5 -68.5t17.5 -85q0 -68 -46.5 -132t-113 -113.5t-142 -79t-137.5 -29.5q-8 0 -11 8t-2 19.5 t4 19.5t7 8q55 16 105.5 41t88.5 58.5t59.5 77.5t21.5 100q0 123 -123 147q-25 4 -51.5 6t-51.5 -10q-8 -4 -23 -14.5t-22 -10.5q-4 0 -7 8.5t-5 18.5t-3 20.5t-1 14.5q0 10 15.5 18t23.5 13q27 14 57.5 37.5t57 48t44 49t17.5 41.5q0 57 -25.5 67.5t-64.5 3.5 q-37 -6 -60.5 -21t-50.5 -48q-2 -2 -5 5t-6 16t-5 19.5t-2 14.5z" />
<glyph unicode="&#xb4;" horiz-adv-x="933" d="M369 1077q10 27 32.5 75t47 100.5t48 99.5t38.5 71q10 16 19 20.5t28 -7.5q12 -10 18 -13.5t11 -7.5t15 -10l27 -19q16 -6 15.5 -21t-11.5 -24q-14 -16 -51 -62t-78 -96t-76.5 -91t-45.5 -48q-18 -12 -33.5 -1t-3.5 34z" />
<glyph unicode="&#xb5;" horiz-adv-x="1161" d="M57 879q0 14 16.5 19t40 6t48.5 1q27 0 47 2q35 4 71.5 8.5t71.5 4.5q16 0 18.5 -24t2.5 -34v-327q0 -61 -1 -123t-1 -123q0 -100 37.5 -156.5t142.5 -56.5q43 0 75.5 7t59.5 23.5t50.5 41t49.5 59.5q2 20 3.5 41.5t2.5 51.5t1 71v104v203q0 29 -2.5 57.5t-8.5 57.5 q-4 18 -23.5 28t-43 14.5t-44 7.5t-26.5 7q-10 0 -24.5 5t-14.5 19q0 10 32 18.5t78 13.5t95 8.5t84 3.5q41 0 52 -11.5t11 -54.5q0 -174 -4 -348t-4 -348q0 -27 13.5 -45.5t42.5 -18.5q47 0 81 8q10 2 22.5 0t12.5 -20q0 -12 -23.5 -24.5t-59 -25t-77.5 -24.5t-81 -22 q-4 0 -14.5 -3.5t-24 -6.5t-26.5 -5t-19 0q-12 2 -13 31q0 27 2 56.5t2 49.5q0 23 -8 15l-65 -58q-33 -29 -69 -52t-76 -38.5t-85 -15.5h-39q-47 0 -84 12q-16 6 -22 -21.5t-6 -68.5q0 -76 3 -123t6 -76.5t6 -48t3 -37.5q0 -90 -69 -90q-35 0 -56.5 25t-21.5 74q0 25 2 60.5 t5 74.5t6 75.5t3 63.5q0 39 -2 69.5t-4 59.5t-4 59.5t-2 69.5l-2 600q0 53 -13.5 80t-74.5 27q-8 4 -19.5 6t-20.5 4t-15.5 8.5t-6.5 18.5z" />
<glyph unicode="&#xb6;" horiz-adv-x="1114" d="M90 440q0 184 65.5 371.5t186.5 338t289 246t375 95.5h36q8 0 13.5 -10.5t5.5 -24.5t-4 -24.5t-15 -10.5h-45q-47 0 -92 -9t-88 -21q-80 -25 -107.5 -81.5t-22.5 -132t34 -166.5t61.5 -187.5t58 -191.5t25.5 -177q0 -94 -19.5 -202t-40 -213.5t-32.5 -202.5t-1 -171 t56 -118t142 -44h37q14 0 34 4q12 0 18.5 -11t6.5 -23t-6 -23.5t-19 -11.5q-20 0 -40.5 -1t-49.5 -1q-109 0 -215 42t-202.5 114.5t-177.5 170t-140 209t-93 231t-34 236.5z" />
<glyph unicode="&#xb7;" horiz-adv-x="526" d="M145 719q0 53 36 91t89 38t91 -38t38 -91t-40 -90t-91 -37q-53 0 -88 37t-35 90z" />
<glyph unicode="&#x2219;" horiz-adv-x="526" d="M145 719q0 53 36 91t89 38t91 -38t38 -91t-40 -90t-91 -37q-53 0 -88 37t-35 90z" />
<glyph unicode="&#xb8;" horiz-adv-x="354" d="M-74 -455q4 16 12.5 37t18.5 31q37 0 81 -19.5t89 -19.5q43 0 83 25.5t40 72.5q0 43 -32 65.5t-71 22.5q-16 0 -33.5 -3t-33.5 -3q-12 0 -18.5 6.5t-16.5 14.5q10 29 25.5 66.5t33 76.5t35 76t31.5 63q6 2 18 2h39q12 0 25 -4q-23 -59 -48.5 -109t-47.5 -108q16 0 34.5 3 t34.5 3q78 0 129.5 -42t51.5 -121q0 -49 -25 -84t-65 -57.5t-91 -34t-102 -11.5q-49 0 -101.5 13t-95.5 38z" />
<glyph unicode="&#xb9;" horiz-adv-x="729" d="M70 854q0 18 20.5 25.5t48 12.5t58 12t51.5 26q20 16 25.5 58t5.5 81v43l2 145v11q0 -8 1 -15.5t1 -11.5v57q0 35 -6.5 76t-18.5 58q-23 23 -53.5 27.5t-59 6.5t-48 10.5t-19.5 36.5q0 20 19.5 23.5t35.5 3.5h23q59 0 97 -6t97 -6q29 0 59.5 3t59.5 3h178q12 -12 12 -23 q0 -29 -21.5 -35t-49.5 -6q-55 0 -86 -10t-45.5 -28.5t-16.5 -47t-2 -65.5q0 -59 -1 -92t-2 -57.5t-2 -54.5t-1 -83v-6v6v-20v14q2 -29 8 -57.5t27 -44.5q18 -16 50 -22.5t61.5 -11.5t52 -11.5t22.5 -24.5q0 -31 -29.5 -34t-60.5 -3q-57 0 -114.5 6t-114.5 6q-31 0 -50.5 -2 t-38 -5t-38 -5t-49.5 -2h-29q-20 0 -39.5 7t-19.5 32z" />
<glyph unicode="&#xba;" horiz-adv-x="882" d="M94 1098q0 74 25.5 138t71 113.5t107.5 78t138 28.5q70 0 133.5 -25.5t111.5 -71.5t75.5 -108.5t27.5 -136.5t-24.5 -138.5t-69.5 -113.5t-108.5 -77.5t-139.5 -28.5q-78 0 -141 24.5t-109.5 68.5t-72 107.5t-25.5 141.5zM134 485.5q1 20.5 1 73.5q0 10 31 12t59 2h35 q117 0 233.5 -2t233.5 4q12 0 12 -36v-82q0 -10 -21.5 -13.5t-45.5 -3.5h-463q-25 0 -49.5 2t-24.5 9q-2 14 -1 34.5zM266 1126q0 -49 11.5 -99t34 -90t56 -64.5t78.5 -24.5q43 0 74 19.5t50.5 52t29.5 76.5t10 91q0 51 -10 101.5t-31.5 90.5t-56.5 63.5t-82 23.5 q-41 0 -70.5 -20.5t-51 -53t-32 -77t-10.5 -89.5z" />
<glyph unicode="&#xbb;" horiz-adv-x="1171" d="M182 842q0 16 15 18q12 -4 22 -12l21 -17q16 -12 29 -25l28 -28q41 -41 84 -78l86 -73q27 -23 52.5 -44.5t47.5 -45.5q6 -6 12.5 -13.5t12.5 -13.5l8 -12l-2 -11q-2 -2 -18 -14q-23 -16 -41.5 -33.5t-36.5 -33.5q-39 -35 -76 -69t-76 -69q-35 -29 -67.5 -62.5 t-67.5 -62.5h-4q-10 0 -17.5 3.5t-9.5 15.5q4 23 35 67.5t71 95t76.5 98.5t53.5 77q-16 31 -56 78t-80 96t-71 94t-31 74zM535 836l6 12q4 8 8 8t14 -4l15 -6q4 -4 10 -7t10 -8q16 -10 28.5 -23t26.5 -26q74 -72 156 -135t156 -137v-6q0 -6 -12.5 -20.5t-29 -30t-31.5 -28.5 t-22 -17q-23 -14 -49 -36t-53 -46.5t-52.5 -49t-43.5 -43.5q-23 -23 -49.5 -42t-44.5 -46l-19 -6q-14 10 -16 15q2 29 32.5 74.5t70.5 96t79 97.5t57 78q-2 8 -12 20q-14 18 -52 64.5t-78 97.5t-71.5 95.5t-33.5 58.5z" />
<glyph unicode="&#xbc;" horiz-adv-x="1544" d="M70 788q0 18 20.5 25.5t48 12.5t58 12.5t51.5 25.5q20 16 25.5 58.5t5.5 81.5v43l2 145v10q0 -8 1 -15t1 -11v57q0 35 -6.5 76t-18.5 57q-23 23 -53.5 28t-59 7t-48 10t-19.5 37q0 20 19.5 23.5t35.5 3.5h23q59 0 104 -6.5t105 -6.5q29 0 59.5 3t58.5 3h179 q12 -12 12 -22q0 -29 -21.5 -35t-50.5 -6q-55 0 -86 -10.5t-45 -28.5t-16 -47t-2 -66q0 -59 -1 -92t-2 -57.5t-2.5 -54t-1.5 -82.5q2 -29 8.5 -61t26.5 -48q18 -16 50 -22.5t62 -11.5t52.5 -11t22.5 -25q0 -31 -30 -33.5t-60 -2.5q-57 0 -114.5 6t-115.5 6q-31 0 -53.5 -2 t-42 -5t-42 -5t-52.5 -2h-29q-20 0 -39.5 6.5t-19.5 31.5zM272 72q248 332 502 651t500 657q23 0 56.5 -22.5t55.5 -34.5q-57 -86 -120.5 -167t-128.5 -163q-193 -246 -383.5 -485.5t-370.5 -493.5q-10 4 -37 23t-74 35zM822 211q-7 14 3 29q66 98 122.5 191t121.5 181 q25 33 35 50.5t17 32t17.5 31.5t32.5 50q12 18 34 25.5t43.5 6.5t36.5 -9t15 -23q0 -4 0 -2q0 4 3 8v-467q0 -6 4 -18q31 -8 56.5 -6t55.5 2q27 0 43.5 -17.5t16.5 -42.5q0 -37 -35 -36q-23 0 -43.5 2t-42.5 2q-16 0 -25.5 -2t-23.5 -6q-4 -20 -4 -35v-129q0 -6 1 -12.5 t3 -14.5q-2 -25 -23.5 -36t-46.5 -13t-45 5t-20 19q2 31 3 44.5t1 21.5v55q0 33 1 64t-28 35q-25 2 -48.5 3t-45.5 1q-49 0 -70.5 -1t-38.5 -1q-14 0 -35.5 -1t-70.5 -1q-13 0 -20 14zM969 313q0 -12 12 -17t23 -5q35 0 70.5 2t55.5 4q35 0 42.5 9t7.5 32v70q0 31 -1 61.5 t-1 69.5v102q-23 -31 -32 -46t-16.5 -28.5t-20.5 -34t-44 -61.5q-27 -35 -52.5 -75t-43.5 -83z" />
<glyph unicode="&#xbd;" horiz-adv-x="1679" d="M70 788q0 18 20.5 25.5t48 12.5t58 12.5t51.5 25.5q20 16 25.5 58.5t5.5 81.5v43l2 145v10q0 -8 1 -15t1 -11v57q0 35 -6.5 76t-18.5 57q-23 23 -53.5 28t-59 7t-48 10t-19.5 37q0 20 19.5 23.5t35.5 3.5h23q59 0 104 -6.5t105 -6.5q29 0 59.5 3t58.5 3h179 q12 -12 12 -22q0 -29 -21.5 -35t-50.5 -6q-55 0 -86 -10.5t-45 -28.5t-16 -47t-2 -66q0 -59 -1 -92t-2 -57.5t-2.5 -54t-1.5 -82.5q2 -29 8.5 -61t26.5 -48q18 -16 50 -22.5t62 -11.5t52.5 -11t22.5 -25q0 -31 -30 -33.5t-60 -2.5q-57 0 -114.5 6t-115.5 6q-31 0 -53.5 -2 t-42 -5t-42 -5t-52.5 -2h-29q-20 0 -39.5 6.5t-19.5 31.5zM272 72q248 332 502 651t500 657q23 0 56.5 -22.5t55.5 -34.5q-57 -86 -120.5 -167t-128.5 -163q-193 -246 -383.5 -485.5t-370.5 -493.5q-10 4 -37 23t-74 35zM995 37q0 10 11 20q57 63 104 101.5t86 69t68.5 64.5 t52.5 89q43 113 0 178.5t-148 65.5q-31 0 -51 -12.5t-34.5 -29t-25.5 -31.5t-24 -22q-12 -6 -23.5 2.5t-11.5 22.5q0 8 7.5 23.5t17.5 31t21.5 29.5t17.5 20q31 27 52.5 43.5t42 24.5t42 11t51.5 3q147 0 215 -93t25 -247q-16 -59 -63.5 -109t-101.5 -89t-101 -62.5 t-66 -31.5q27 -12 68 -16.5t82 -1.5t76.5 15.5t52.5 32.5q20 27 43.5 59.5t45 63.5t38 54.5t20.5 29.5q16 23 40 13.5t32 -27.5q-51 -82 -70.5 -145.5t-26 -106.5t-8.5 -65.5t-18 -22.5q-59 0 -98 4t-76 10t-79 12.5t-105 8.5h-35q-8 0 -13.5 -1t-13.5 -1h-35 q-8 0 -21.5 -17.5t-21.5 -13.5q-20 0 -30.5 8t-10.5 35z" />
<glyph unicode="&#xbe;" horiz-adv-x="1433" d="M100 1395q-2 14 12.5 31.5t39 34t54.5 28.5t56 16q31 4 68 1t68.5 -16t54 -39t22.5 -67q0 -27 -17.5 -57.5t-42 -59t-51 -52t-42.5 -35.5q51 6 95 -9.5t74.5 -44t48 -68.5t17.5 -85q0 -68 -46 -132.5t-112.5 -113.5t-142.5 -79t-137 -30q-8 0 -11.5 8.5t-2.5 19.5 t4.5 19.5t7.5 8.5q55 16 105 40.5t88 58.5t59.5 78t21.5 99q0 123 -123 148q-25 4 -51.5 6t-50.5 -10q-8 -4 -23.5 -14.5t-21.5 -10.5q-4 0 -7 8t-5.5 18.5t-3.5 20.5t-1 14q0 10 15.5 18.5t23.5 12.5q27 14 57.5 38t57.5 48.5t44 49t17 40.5q0 57 -25.5 67.5t-64.5 4.5 q-37 -6 -60.5 -21.5t-49.5 -48.5q-2 -2 -5 5.5t-6.5 16.5t-5.5 19.5t-2 14.5zM162 72q248 332 502 651t499 657q23 0 56.5 -22.5t56.5 -34.5q-57 -86 -120.5 -167t-129.5 -163q-193 -246 -383 -485.5t-371 -493.5q-10 4 -36.5 23t-73.5 35zM712 211q-7 14 3 29 q66 98 122 191t121 181q25 33 35.5 50.5t17.5 32t17 31.5t33 50q12 18 33.5 25.5t43 6.5t37 -9t15.5 -23q0 -4 0 -2q0 4 2 8v-467q0 -6 4 -18q31 -8 56.5 -6t56.5 2q27 0 43 -17.5t16 -42.5q0 -37 -35 -36q-23 0 -43 2t-43 2q-16 0 -25.5 -2t-23.5 -6q-4 -20 -4 -35v-129 q0 -6 1 -12.5t3 -14.5q-2 -25 -23.5 -36t-46 -13t-45 5t-20.5 19q2 31 3 44.5t1 21.5v55q0 33 1 64t-28 35q-25 2 -48 3t-46 1q-49 0 -70.5 -1t-37.5 -1q-14 0 -36 -1t-71 -1q-12 0 -19 14zM858 313q0 -12 12.5 -17t22.5 -5q35 0 70.5 2t56.5 4q35 0 42 9t7 32v70 q0 31 -1 61.5t-1 69.5v102q-23 -31 -32 -46t-16 -28.5t-20.5 -34t-44.5 -61.5q-27 -35 -52.5 -75t-43.5 -83z" />
<glyph unicode="&#xbf;" horiz-adv-x="686" d="M59 59q0 78 26 131.5t65.5 91t88 64.5t91.5 50.5t76.5 49t46.5 62.5q8 6 8 31v53q0 29 7 51.5t30 26.5q27 -6 28 -33q2 -14 3 -40t1 -54q0 -27 -1 -52.5t-1 -39.5q0 -76 3.5 -116t-25.5 -56q-55 -23 -112.5 -50.5t-105.5 -66.5t-78 -90.5t-30 -120.5q0 -49 16.5 -96.5 t47 -85t73.5 -61t97 -23.5q35 0 69.5 12t69.5 12t60.5 -21.5t25.5 -56.5q0 -31 -12.5 -49t-33 -29.5t-45 -14.5t-48.5 -3q-86 0 -166 52.5t-141.5 130t-97.5 169.5t-36 172zM367 938q0 51 39.5 86t91.5 25q47 -4 72.5 -39t25.5 -80q0 -51 -30.5 -85t-84.5 -34 q-51 0 -82.5 40t-31.5 87z" />
<glyph unicode="&#xc0;" horiz-adv-x="1593" d="M20 23q0 27 16.5 35t39 12t49.5 12t45 37q6 8 18.5 35.5t25.5 58.5t24.5 60.5t17.5 43.5q43 111 87 218.5t89 218.5q76 186 151.5 370.5t151.5 370.5q4 12 9.5 19.5t21.5 7.5q14 0 22.5 -11.5t12.5 -21.5q47 -117 96 -238t96 -237q86 -221 180.5 -441.5t198.5 -437.5 q18 -39 52 -51t67 -18.5t57.5 -13.5t24.5 -34q0 -18 -21.5 -25t-42.5 -7h-22q-49 0 -98.5 6t-98.5 6q-72 0 -142.5 -6t-141.5 -6q-18 0 -33 12t-15 31q0 23 29 26.5t64.5 5.5t64.5 10.5t29 43.5q0 6 -2 13t-4 13q-6 20 -22.5 62.5t-39 99.5t-51.5 127t-59 143 q-10 20 -17.5 37t-11.5 21q-16 16 -49 19t-68 3h-39q-25 0 -64.5 1t-82.5 1q-41 0 -81 -2t-67 -8q-37 -86 -68.5 -171t-54 -154.5t-36 -116.5t-13.5 -58q0 -43 33 -55t73 -16t72.5 -11.5t32.5 -37.5q0 -16 -12 -27.5t-29 -11.5q-66 0 -133 7t-133 7q-47 0 -85 -5t-85 -5 q-14 0 -21.5 10.5t-7.5 22.5zM525 1944.5q-1 9.5 16 23.5q12 10 17 14.5t11 8.5l16 10q9 6 27 20q10 16 24.5 9t18.5 -17q10 -20 42 -70.5t67 -104.5t62.5 -101t29.5 -62q6 -20 -9.5 -30.5t-33.5 8.5q-20 18 -59 54t-81 77t-79 77.5t-55 59.5q-13 14 -14 23.5zM526 739h56 q35 0 105.5 1t199.5 1q0 2 7 3t11 4q-27 72 -55.5 152.5t-53 151t-42 120t-23.5 57.5q-6 6 -15 -15.5t-19.5 -50t-18.5 -55.5t-10 -29q-14 -35 -53.5 -128t-88.5 -212z" />
<glyph unicode="&#xc1;" horiz-adv-x="1593" d="M20 23q0 27 16.5 35t39 12t49.5 12t45 37q6 8 18.5 35.5t25.5 58.5t24.5 60.5t17.5 43.5q43 111 87 218.5t89 218.5q76 186 151.5 370.5t151.5 370.5q4 12 9.5 19.5t21.5 7.5q14 0 22.5 -11.5t12.5 -21.5q47 -117 96 -238t96 -237q86 -221 180.5 -441.5t198.5 -437.5 q18 -39 52 -51t67 -18.5t57.5 -13.5t24.5 -34q0 -18 -21.5 -25t-42.5 -7h-22q-49 0 -98.5 6t-98.5 6q-72 0 -142.5 -6t-141.5 -6q-18 0 -33 12t-15 31q0 23 29 26.5t64.5 5.5t64.5 10.5t29 43.5q0 6 -2 13t-4 13q-6 20 -22.5 62.5t-39 99.5t-51.5 127t-59 143 q-10 20 -17.5 37t-11.5 21q-16 16 -49 19t-68 3h-39q-25 0 -64.5 1t-82.5 1q-41 0 -81 -2t-67 -8q-37 -86 -68.5 -171t-54 -154.5t-36 -116.5t-13.5 -58q0 -43 33 -55t73 -16t72.5 -11.5t32.5 -37.5q0 -16 -12 -27.5t-29 -11.5q-66 0 -133 7t-133 7q-47 0 -85 -5t-85 -5 q-14 0 -21.5 10.5t-7.5 22.5zM526 739h56q35 0 105.5 1t199.5 1q0 2 7 3t11 4q-27 72 -55.5 152.5t-53 151t-42 120t-23.5 57.5q-6 6 -15 -15.5t-19.5 -50t-18.5 -55.5t-10 -29q-14 -35 -53.5 -128t-88.5 -212zM741 1683q10 27 33 75t47.5 100.5t48 99.5t37.5 72 q10 16 19.5 20t27.5 -8q12 -10 18.5 -13.5t11.5 -7.5t14 -10l28 -18q16 -6 15 -21.5t-11 -23.5q-14 -16 -51 -62.5t-78 -96.5t-77 -91t-46 -47q-18 -12 -33.5 -1.5t-3.5 33.5z" />
<glyph unicode="&#xc2;" horiz-adv-x="1593" d="M20 23q0 27 16.5 35t39 12t49.5 12t45 37q6 8 18.5 35.5t25.5 58.5t24.5 60.5t17.5 43.5q43 111 87 218.5t89 218.5q76 186 151.5 370.5t151.5 370.5q4 12 9.5 19.5t21.5 7.5q14 0 22.5 -11.5t12.5 -21.5q47 -117 96 -238t96 -237q86 -221 180.5 -441.5t198.5 -437.5 q18 -39 52 -51t67 -18.5t57.5 -13.5t24.5 -34q0 -18 -21.5 -25t-42.5 -7h-22q-49 0 -98.5 6t-98.5 6q-72 0 -142.5 -6t-141.5 -6q-18 0 -33 12t-15 31q0 23 29 26.5t64.5 5.5t64.5 10.5t29 43.5q0 6 -2 13t-4 13q-6 20 -22.5 62.5t-39 99.5t-51.5 127t-59 143 q-10 20 -17.5 37t-11.5 21q-16 16 -49 19t-68 3h-39q-25 0 -64.5 1t-82.5 1q-41 0 -81 -2t-67 -8q-37 -86 -68.5 -171t-54 -154.5t-36 -116.5t-13.5 -58q0 -43 33 -55t73 -16t72.5 -11.5t32.5 -37.5q0 -16 -12 -27.5t-29 -11.5q-66 0 -133 7t-133 7q-47 0 -85 -5t-85 -5 q-14 0 -21.5 10.5t-7.5 22.5zM526 739h56q35 0 105.5 1t199.5 1q0 2 7 3t11 4q-27 72 -55.5 152.5t-53 151t-42 120t-23.5 57.5q-6 6 -15 -15.5t-19.5 -50t-18.5 -55.5t-10 -29q-14 -35 -53.5 -128t-88.5 -212zM594 1610q0 6 13.5 34.5t35 67.5t47 84t49 84t43 67.5 t27.5 34.5q18 -12 20 -16q59 -98 113.5 -185t83.5 -163q4 -12 4 -16q0 -18 -18 -15q-10 2 -35 32t-55.5 68.5t-61.5 74.5t-51 50q-23 -16 -50.5 -52t-54 -72.5t-52 -64.5t-46.5 -28q-12 1 -12 15z" />
<glyph unicode="&#xc3;" horiz-adv-x="1593" d="M20 23q0 27 16.5 35t39 12t49.5 12t45 37q6 8 18.5 35.5t25.5 58.5t24.5 60.5t17.5 43.5q43 111 87 218.5t89 218.5q76 186 151.5 370.5t151.5 370.5q4 12 9.5 19.5t21.5 7.5q14 0 22.5 -11.5t12.5 -21.5q47 -117 96 -238t96 -237q86 -221 180.5 -441.5t198.5 -437.5 q18 -39 52 -51t67 -18.5t57.5 -13.5t24.5 -34q0 -18 -21.5 -25t-42.5 -7h-22q-49 0 -98.5 6t-98.5 6q-72 0 -142.5 -6t-141.5 -6q-18 0 -33 12t-15 31q0 23 29 26.5t64.5 5.5t64.5 10.5t29 43.5q0 6 -2 13t-4 13q-6 20 -22.5 62.5t-39 99.5t-51.5 127t-59 143 q-10 20 -17.5 37t-11.5 21q-16 16 -49 19t-68 3h-39q-25 0 -64.5 1t-82.5 1q-41 0 -81 -2t-67 -8q-37 -86 -68.5 -171t-54 -154.5t-36 -116.5t-13.5 -58q0 -43 33 -55t73 -16t72.5 -11.5t32.5 -37.5q0 -16 -12 -27.5t-29 -11.5q-66 0 -133 7t-133 7q-47 0 -85 -5t-85 -5 q-14 0 -21.5 10.5t-7.5 22.5zM432 1651q8 41 24.5 79.5t43 68.5t62.5 48.5t83 18.5q41 0 80 -13.5t76 -31t71.5 -30.5t69.5 -13q47 0 73.5 31.5t39.5 72.5q4 16 30 16q27 0 27 -14q0 -10 -1 -19.5t-3 -19.5q-6 -37 -26.5 -70.5t-49 -59t-64.5 -41t-75 -15.5q-35 0 -74 14.5 t-78 30.5t-76.5 30.5t-70.5 14.5q-49 0 -70.5 -31.5t-40.5 -68.5q0 -12 -26 -13q-8 0 -16.5 4.5t-8.5 10.5zM526 739h56q35 0 105.5 1t199.5 1q0 2 7 3t11 4q-27 72 -55.5 152.5t-53 151t-42 120t-23.5 57.5q-6 6 -15 -15.5t-19.5 -50t-18.5 -55.5t-10 -29 q-14 -35 -53.5 -128t-88.5 -212z" />
<glyph unicode="&#xc4;" horiz-adv-x="1593" d="M20 23q0 27 16.5 35t39 12t49.5 12t45 37q6 8 18.5 35.5t25.5 58.5t24.5 60.5t17.5 43.5q43 111 87 218.5t89 218.5q76 186 151.5 370.5t151.5 370.5q4 12 9.5 19.5t21.5 7.5q14 0 22.5 -11.5t12.5 -21.5q47 -117 96 -238t96 -237q86 -221 180.5 -441.5t198.5 -437.5 q18 -39 52 -51t67 -18.5t57.5 -13.5t24.5 -34q0 -18 -21.5 -25t-42.5 -7h-22q-49 0 -98.5 6t-98.5 6q-72 0 -142.5 -6t-141.5 -6q-18 0 -33 12t-15 31q0 23 29 26.5t64.5 5.5t64.5 10.5t29 43.5q0 6 -2 13t-4 13q-6 20 -22.5 62.5t-39 99.5t-51.5 127t-59 143 q-10 20 -17.5 37t-11.5 21q-16 16 -49 19t-68 3h-39q-25 0 -64.5 1t-82.5 1q-41 0 -81 -2t-67 -8q-37 -86 -68.5 -171t-54 -154.5t-36 -116.5t-13.5 -58q0 -43 33 -55t73 -16t72.5 -11.5t32.5 -37.5q0 -16 -12 -27.5t-29 -11.5q-66 0 -133 7t-133 7q-47 0 -85 -5t-85 -5 q-14 0 -21.5 10.5t-7.5 22.5zM492 1751q0 47 34.5 79t81.5 32q45 0 76 -35t31 -78q0 -47 -34 -75.5t-79 -28.5t-77.5 29.5t-32.5 76.5zM526 739h56q35 0 105.5 1t199.5 1q0 2 7 3t11 4q-27 72 -55.5 152.5t-53 151t-42 120t-23.5 57.5q-6 6 -15 -15.5t-19.5 -50t-18.5 -55.5 t-10 -29q-14 -35 -53.5 -128t-88.5 -212zM915 1753q0 47 31 78t80 31q47 0 78 -30t31 -77q0 -51 -34 -82t-83 -31q-6 0 -8 3q-43 4 -69 35.5t-26 72.5z" />
<glyph unicode="&#xc5;" horiz-adv-x="1593" d="M20 23q0 27 16.5 35t39 12t49.5 12t45 37q6 8 18.5 35.5t25.5 58.5t24.5 60.5t17.5 43.5q43 111 87 218.5t89 218.5q76 186 151.5 370.5t151.5 370.5q4 12 9.5 19.5t21.5 7.5q14 0 22.5 -11.5t12.5 -21.5q47 -117 96 -238t96 -237q86 -221 180.5 -441.5t198.5 -437.5 q18 -39 52 -51t67 -18.5t57.5 -13.5t24.5 -34q0 -18 -21.5 -25t-42.5 -7h-22q-49 0 -98.5 6t-98.5 6q-72 0 -142.5 -6t-141.5 -6q-18 0 -33 12t-15 31q0 23 29 26.5t64.5 5.5t64.5 10.5t29 43.5q0 6 -2 13t-4 13q-6 20 -22.5 62.5t-39 99.5t-51.5 127t-59 143 q-10 20 -17.5 37t-11.5 21q-16 16 -49 19t-68 3h-39q-25 0 -64.5 1t-82.5 1q-41 0 -81 -2t-67 -8q-37 -86 -68.5 -171t-54 -154.5t-36 -116.5t-13.5 -58q0 -43 33 -55t73 -16t72.5 -11.5t32.5 -37.5q0 -16 -12 -27.5t-29 -11.5q-66 0 -133 7t-133 7q-47 0 -85 -5t-85 -5 q-14 0 -21.5 10.5t-7.5 22.5zM526 739h56q35 0 105.5 1t199.5 1q0 2 7 3t11 4q-27 72 -55.5 152.5t-53 151t-42 120t-23.5 57.5q-6 6 -15 -15.5t-19.5 -50t-18.5 -55.5t-10 -29q-14 -35 -53.5 -128t-88.5 -212zM604 1788q0 35 14.5 67.5t39 58t56 41t66.5 15.5 q88 0 143.5 -55t55.5 -137q0 -41 -15.5 -76t-42 -60.5t-62.5 -41t-75 -15.5q-12 0 -16 4q-33 2 -62.5 21.5t-52 48.5t-36 62.5t-13.5 66.5zM678 1786q0 -20 8 -42t22.5 -40t33 -30.5t38.5 -14.5q2 -2 11 -2q51 0 86.5 34.5t35.5 86.5q0 51 -37.5 87t-87.5 36 q-45 0 -77.5 -35t-32.5 -80z" />
<glyph unicode="&#xc6;" horiz-adv-x="2170" d="M20 18q0 18 19.5 24.5t48.5 15t61.5 24.5t61.5 53q12 16 25.5 32.5t23.5 33.5q154 242 302.5 481.5t295.5 486.5q20 35 42 69t38 71l8 20q4 10 4 21q0 43 -34.5 54t-75.5 13t-76 5t-35 32q0 23 23.5 26t40.5 3q66 0 115.5 -1t96 -2t96.5 -2t116 -1q70 0 154.5 1t172.5 3 t173 3t155 1h22q23 0 45.5 -4t26.5 -21q8 -41 8 -76q0 -18 -1 -43.5t-1 -62.5q0 -41 -5 -77t-21 -38q-20 0 -32.5 25.5t-25 60.5t-28 69t-43.5 50q-18 10 -53 17.5t-78.5 11.5t-89.5 5t-87 1h-90q-47 0 -71.5 -19.5t-36 -50t-13.5 -68.5t-2 -73q0 -70 1 -145.5t1 -180.5v-24 q0 -12 2 -19q8 -10 24.5 -14t37 -5t39 0t31.5 1q55 0 112.5 1t112.5 9q61 10 88 51t31 101q6 12 13 23t23 11q23 0 25 -20t2 -43q0 -43 -2 -86t-2 -86t2 -85t2 -85q0 -10 1 -25.5t-1 -30t-9 -23.5t-22 -9q-14 0 -22 18.5t-13.5 42t-9.5 47t-10 33.5q-8 39 -42 58.5t-80 26.5 t-96 6t-89 -1q-10 0 -26.5 -1t-35 -2t-36 -3t-25.5 -4q-12 -2 -16 -18.5t-6.5 -37t-1.5 -41t1 -28.5v-323q0 -23 1.5 -50.5t6.5 -55.5t16 -51.5t34 -35.5q16 -8 57 -13t87 -7t89 -3.5t62 -1.5h63q27 0 59.5 2.5t62.5 5.5t55.5 9t41.5 16q29 18 53.5 57.5t46 78t41 68.5 t35.5 30q25 0 28 -16.5t-5 -32.5q0 -2 -4 -20.5t-6 -22.5q-2 -6 -10.5 -42t-17.5 -76t-16 -73l-7 -33q-16 -25 -52 -24h-991q-12 0 -39.5 -3t-56.5 -2t-50.5 8t-21.5 27q0 16 25.5 24.5t60.5 17t70 21.5t53 40q14 25 20.5 84t8.5 137t1 163t-1 163q0 27 -6 55q-12 0 -25.5 2 t-26.5 2q-86 0 -154.5 -3t-154.5 -3q-10 0 -21.5 -7t-17.5 -16q-18 -23 -39.5 -54.5t-42 -65t-40 -66.5t-33.5 -57l-86 -148q-43 -74 -76 -153q-4 -10 -8 -17.5t-4 -17.5q0 -31 30.5 -41t66.5 -14.5t66.5 -13.5t30.5 -36q0 -23 -18.5 -26.5t-28.5 -3.5q-57 0 -112.5 5 t-112.5 5q-59 0 -117.5 -4t-118.5 -4q-23 0 -27 10t-4 20zM758 815q10 -6 40.5 -7t53.5 -1h27q55 0 94 2t94 2q10 0 21.5 3t11.5 17v445q0 33 -3 62.5t-20 27.5q-10 0 -24.5 -22.5t-30.5 -53t-32.5 -64.5t-31.5 -55q-45 -70 -83.5 -140t-83.5 -140q-10 -14 -14.5 -21.5 t-6.5 -14.5t-4 -16.5t-8 -23.5z" />
<glyph unicode="&#xc7;" horiz-adv-x="1488" d="M123 770q0 178 56.5 316.5t155.5 233.5t238.5 144t305.5 49q70 0 138 -8t138 -22q16 -4 37.5 -11.5t44.5 -13.5q14 -12 24.5 1.5t22.5 33.5t30.5 39.5t49.5 19.5q14 0 18 -20.5t4 -48.5q0 -29 -3 -59.5t-3 -53.5q0 -53 -2 -106.5t-6 -106.5q-4 -18 -10 -24.5t-14 -6.5 t-15.5 2t-13.5 2q-12 0 -20.5 18.5t-14.5 44.5t-13 53.5t-20 47.5q-66 72 -161 110t-195 38q-141 0 -241.5 -55.5t-164 -147.5t-93 -214t-29.5 -253q0 -141 29.5 -274t95 -236.5t170 -167t253.5 -63.5q49 0 102.5 11t103.5 32.5t94.5 52.5t76.5 72q10 14 23.5 38.5t28 49 t26.5 43t23 18.5q23 0 32 -8t9 -31q0 -16 -5.5 -53t-13.5 -77t-18.5 -72.5t-20.5 -43.5q-35 -31 -92 -52t-122.5 -35.5t-134.5 -20.5t-124 -6q-16 0 -32.5 1t-32.5 3q-16 -41 -35 -79t-35 -79q16 0 34.5 3t35.5 3q78 0 129 -42t51 -121q0 -49 -24.5 -84t-64.5 -57.5 t-91.5 -34t-102.5 -11.5q-49 0 -101 13.5t-95 37.5q4 16 12 37t18 31q37 0 81 -19.5t89 -19.5q43 0 83 25.5t40 72.5q0 43 -31.5 65.5t-70.5 22.5q-16 0 -33.5 -3t-34.5 -3q-12 0 -18 6.5t-17 14.5q16 47 43 111.5t54 119.5q-147 27 -264 101.5t-198 182t-125 242t-44 281.5 z" />
<glyph unicode="&#xc8;" horiz-adv-x="1374" d="M72 20q0 16 25.5 24.5t61.5 17t70.5 21.5t53.5 40q16 25 22 80t6 121q0 68 -2 136t-2 120q0 166 -2 329.5t-2 329.5v37v18q0 8 -2 19q-4 53 -38 70.5t-73.5 22.5t-71.5 10t-32 32q0 18 17.5 25.5t41 10.5t50 2t45.5 -1q70 0 139.5 -3t140.5 -3q141 0 277.5 3t277.5 3h23 q23 0 45 -4t26 -21q8 -41 9 -76q0 -18 -1 -43.5t-1 -62.5q0 -41 -5.5 -77t-21.5 -38q-20 0 -32.5 25.5t-25 60.5t-27.5 69t-44 50q-18 10 -53 17.5t-78 11.5t-89 5t-87 1h-90q-47 0 -72 -19.5t-36 -50t-13 -68.5t-2 -73q0 -70 1 -139.5t1 -139.5v-47q0 -27 4 -43 q8 -10 24.5 -14t36 -5t38 0t30.5 1q55 0 112.5 1t112.5 9q61 10 88 51t31 101q6 12 13 23t24 11q23 0 24.5 -20t1.5 -43q0 -43 -2 -86t-2 -86t2 -85t2 -85q0 -10 1 -25.5t-1 -30t-9 -23.5t-21 -9t-22.5 18.5t-13.5 42t-9 47t-11 33.5q-8 39 -41.5 58.5t-80 26.5t-96.5 6 t-89 -1q-10 0 -26.5 -1t-35 -2t-35.5 -3t-26 -4q-12 -2 -16 -18.5t-6 -37t-1 -41t1 -28.5v-323q0 -23 1 -50.5t6 -55.5t16.5 -51.5t33.5 -35.5q16 -8 57 -13t87.5 -7t89.5 -3.5t61 -1.5h64q27 0 59.5 2.5t62 5.5t55 9t42.5 16q29 18 53.5 57.5t46 78t40.5 68.5t36 30 q25 0 28 -16.5t-6 -32.5q0 -2 -4 -20.5t-6 -22.5q-2 -6 -10 -42t-17.5 -76t-16.5 -73l-7 -33q-16 -25 -51 -24h-967q-29 0 -58.5 -2t-60.5 -2q-23 0 -45 1.5t-22 32.5zM533.5 1895.5q-1.5 9.5 15.5 23.5q12 10 17 14t12 9l15 10q9 6 28 20q10 16 24 9t19 -17 q10 -20 41.5 -70.5t66.5 -104.5t62.5 -101.5t29.5 -61.5q6 -20 -9 -30.5t-34 8.5q-20 18 -59 54t-81 77t-79 77.5t-55 59.5q-12 14 -13.5 23.5z" />
<glyph unicode="&#xc9;" horiz-adv-x="1374" d="M72 20q0 16 25.5 24.5t61.5 17t70.5 21.5t53.5 40q16 25 22 80t6 121q0 68 -2 136t-2 120q0 166 -2 329.5t-2 329.5v37v18q0 8 -2 19q-4 53 -38 70.5t-73.5 22.5t-71.5 10t-32 32q0 18 17.5 25.5t41 10.5t50 2t45.5 -1q70 0 139.5 -3t140.5 -3q141 0 277.5 3t277.5 3h23 q23 0 45 -4t26 -21q8 -41 9 -76q0 -18 -1 -43.5t-1 -62.5q0 -41 -5.5 -77t-21.5 -38q-20 0 -32.5 25.5t-25 60.5t-27.5 69t-44 50q-18 10 -53 17.5t-78 11.5t-89 5t-87 1h-90q-47 0 -72 -19.5t-36 -50t-13 -68.5t-2 -73q0 -70 1 -139.5t1 -139.5v-47q0 -27 4 -43 q8 -10 24.5 -14t36 -5t38 0t30.5 1q55 0 112.5 1t112.5 9q61 10 88 51t31 101q6 12 13 23t24 11q23 0 24.5 -20t1.5 -43q0 -43 -2 -86t-2 -86t2 -85t2 -85q0 -10 1 -25.5t-1 -30t-9 -23.5t-21 -9t-22.5 18.5t-13.5 42t-9 47t-11 33.5q-8 39 -41.5 58.5t-80 26.5t-96.5 6 t-89 -1q-10 0 -26.5 -1t-35 -2t-35.5 -3t-26 -4q-12 -2 -16 -18.5t-6 -37t-1 -41t1 -28.5v-323q0 -23 1 -50.5t6 -55.5t16.5 -51.5t33.5 -35.5q16 -8 57 -13t87.5 -7t89.5 -3.5t61 -1.5h64q27 0 59.5 2.5t62 5.5t55 9t42.5 16q29 18 53.5 57.5t46 78t40.5 68.5t36 30 q25 0 28 -16.5t-6 -32.5q0 -2 -4 -20.5t-6 -22.5q-2 -6 -10 -42t-17.5 -76t-16.5 -73l-7 -33q-16 -25 -51 -24h-967q-29 0 -58.5 -2t-60.5 -2q-23 0 -45 1.5t-22 32.5zM739 1651q10 27 33 75t47.5 100t48 99t37.5 72q10 16 19.5 20t27.5 -8q12 -10 18.5 -13t11.5 -7t14 -11 l28 -18q16 -6 15 -21.5t-11 -23.5q-14 -16 -51 -62.5t-78 -96.5t-77 -91t-46 -47q-18 -12 -33.5 -1t-3.5 34z" />
<glyph unicode="&#xca;" horiz-adv-x="1374" d="M72 20q0 16 25.5 24.5t61.5 17t70.5 21.5t53.5 40q16 25 22 80t6 121q0 68 -2 136t-2 120q0 166 -2 329.5t-2 329.5v37v18q0 8 -2 19q-4 53 -38 70.5t-73.5 22.5t-71.5 10t-32 32q0 18 17.5 25.5t41 10.5t50 2t45.5 -1q70 0 139.5 -3t140.5 -3q141 0 277.5 3t277.5 3h23 q23 0 45 -4t26 -21q8 -41 9 -76q0 -18 -1 -43.5t-1 -62.5q0 -41 -5.5 -77t-21.5 -38q-20 0 -32.5 25.5t-25 60.5t-27.5 69t-44 50q-18 10 -53 17.5t-78 11.5t-89 5t-87 1h-90q-47 0 -72 -19.5t-36 -50t-13 -68.5t-2 -73q0 -70 1 -139.5t1 -139.5v-47q0 -27 4 -43 q8 -10 24.5 -14t36 -5t38 0t30.5 1q55 0 112.5 1t112.5 9q61 10 88 51t31 101q6 12 13 23t24 11q23 0 24.5 -20t1.5 -43q0 -43 -2 -86t-2 -86t2 -85t2 -85q0 -10 1 -25.5t-1 -30t-9 -23.5t-21 -9t-22.5 18.5t-13.5 42t-9 47t-11 33.5q-8 39 -41.5 58.5t-80 26.5t-96.5 6 t-89 -1q-10 0 -26.5 -1t-35 -2t-35.5 -3t-26 -4q-12 -2 -16 -18.5t-6 -37t-1 -41t1 -28.5v-323q0 -23 1 -50.5t6 -55.5t16.5 -51.5t33.5 -35.5q16 -8 57 -13t87.5 -7t89.5 -3.5t61 -1.5h64q27 0 59.5 2.5t62 5.5t55 9t42.5 16q29 18 53.5 57.5t46 78t40.5 68.5t36 30 q25 0 28 -16.5t-6 -32.5q0 -2 -4 -20.5t-6 -22.5q-2 -6 -10 -42t-17.5 -76t-16.5 -73l-7 -33q-16 -25 -51 -24h-967q-29 0 -58.5 -2t-60.5 -2q-23 0 -45 1.5t-22 32.5zM522 1649q0 6 13.5 34.5t35 67.5t47 84t49 84t43 67.5t27.5 34.5q18 -12 21 -16q59 -98 113.5 -185 t82.5 -163q4 -12 4 -17q0 -18 -18 -14q-10 2 -34.5 32t-55.5 68.5t-61.5 74.5t-51.5 50q-23 -16 -50.5 -52t-54 -72.5t-52 -64.5t-45.5 -28q-13 1 -13 15z" />
<glyph unicode="&#xcb;" horiz-adv-x="1374" d="M72 20q0 16 25.5 24.5t61.5 17t70.5 21.5t53.5 40q16 25 22 80t6 121q0 68 -2 136t-2 120q0 166 -2 329.5t-2 329.5v37v18q0 8 -2 19q-4 53 -38 70.5t-73.5 22.5t-71.5 10t-32 32q0 18 17.5 25.5t41 10.5t50 2t45.5 -1q70 0 139.5 -3t140.5 -3q141 0 277.5 3t277.5 3h23 q23 0 45 -4t26 -21q8 -41 9 -76q0 -18 -1 -43.5t-1 -62.5q0 -41 -5.5 -77t-21.5 -38q-20 0 -32.5 25.5t-25 60.5t-27.5 69t-44 50q-18 10 -53 17.5t-78 11.5t-89 5t-87 1h-90q-47 0 -72 -19.5t-36 -50t-13 -68.5t-2 -73q0 -70 1 -139.5t1 -139.5v-47q0 -27 4 -43 q8 -10 24.5 -14t36 -5t38 0t30.5 1q55 0 112.5 1t112.5 9q61 10 88 51t31 101q6 12 13 23t24 11q23 0 24.5 -20t1.5 -43q0 -43 -2 -86t-2 -86t2 -85t2 -85q0 -10 1 -25.5t-1 -30t-9 -23.5t-21 -9t-22.5 18.5t-13.5 42t-9 47t-11 33.5q-8 39 -41.5 58.5t-80 26.5t-96.5 6 t-89 -1q-10 0 -26.5 -1t-35 -2t-35.5 -3t-26 -4q-12 -2 -16 -18.5t-6 -37t-1 -41t1 -28.5v-323q0 -23 1 -50.5t6 -55.5t16.5 -51.5t33.5 -35.5q16 -8 57 -13t87.5 -7t89.5 -3.5t61 -1.5h64q27 0 59.5 2.5t62 5.5t55 9t42.5 16q29 18 53.5 57.5t46 78t40.5 68.5t36 30 q25 0 28 -16.5t-6 -32.5q0 -2 -4 -20.5t-6 -22.5q-2 -6 -10 -42t-17.5 -76t-16.5 -73l-7 -33q-16 -25 -51 -24h-967q-29 0 -58.5 -2t-60.5 -2q-23 0 -45 1.5t-22 32.5zM406 1765q0 47 34.5 79t81.5 32q45 0 76 -35t31 -78q0 -47 -34 -75.5t-79 -28.5t-77.5 29.5t-32.5 76.5z M829 1767q0 47 31 78t80 31q47 0 78 -29.5t31 -77.5q0 -51 -34 -81.5t-83 -30.5q-6 0 -8 2q-43 4 -69 35.5t-26 72.5z" />
<glyph unicode="&#xcc;" horiz-adv-x="778" d="M72 20q0 18 20.5 25.5t48 12.5t58 12.5t51.5 25.5q20 16 25.5 58.5t5.5 81.5v43l2 716q0 53 1 104.5t1 102.5v39q0 35 -6.5 76t-18.5 57q-23 23 -53.5 28t-59 7t-48 10t-19.5 37q0 20 19.5 23.5t35.5 3.5h23q59 0 119.5 -6.5t119.5 -6.5q29 0 59.5 3.5t59.5 3.5h178 q4 -4 8.5 -14.5t4.5 -16.5q0 -29 -21.5 -35t-50.5 -6q-55 0 -86 -8t-45.5 -26.5t-16.5 -45.5t-2 -63q0 -129 -3 -256t-3 -256v-523q0 -33 5 -73.5t30 -63.5q18 -16 50 -22.5t61.5 -11.5t52 -11t22.5 -25q0 -31 -29.5 -33.5t-60.5 -2.5q-57 0 -114.5 6t-114.5 6 q-61 0 -110.5 -7t-110.5 -7h-29q-20 0 -39.5 6.5t-19.5 31.5zM159 1946.5q-1 9.5 15 23.5q12 10 17.5 14.5t11.5 8.5l15 10q9 6 28 20q10 16 24.5 9t18.5 -17q10 -20 41.5 -70.5t66.5 -104.5t62.5 -101t29.5 -62q6 -20 -9 -30.5t-34 8.5q-20 18 -59 54t-81 77t-79 78t-55 59 q-12 14 -13 23.5z" />
<glyph unicode="&#xcd;" horiz-adv-x="778" d="M72 20q0 18 20.5 25.5t48 12.5t58 12.5t51.5 25.5q20 16 25.5 58.5t5.5 81.5v43l2 716q0 53 1 104.5t1 102.5v39q0 35 -6.5 76t-18.5 57q-23 23 -53.5 28t-59 7t-48 10t-19.5 37q0 20 19.5 23.5t35.5 3.5h23q59 0 119.5 -6.5t119.5 -6.5q29 0 59.5 3.5t59.5 3.5h178 q4 -4 8.5 -14.5t4.5 -16.5q0 -29 -21.5 -35t-50.5 -6q-55 0 -86 -8t-45.5 -26.5t-16.5 -45.5t-2 -63q0 -129 -3 -256t-3 -256v-523q0 -33 5 -73.5t30 -63.5q18 -16 50 -22.5t61.5 -11.5t52 -11t22.5 -25q0 -31 -29.5 -33.5t-60.5 -2.5q-57 0 -114.5 6t-114.5 6 q-61 0 -110.5 -7t-110.5 -7h-29q-20 0 -39.5 6.5t-19.5 31.5zM326 1665q10 27 32.5 75t47 100t48 99.5t38.5 71.5q10 16 19 20.5t28 -8.5q12 -10 18 -13t11 -7t15 -10l27 -19q16 -6 15.5 -21.5t-11.5 -23.5q-14 -16 -51 -62t-78 -96.5t-76.5 -91.5t-46.5 -47q-18 -12 -33 -1 t-3 34z" />
<glyph unicode="&#xce;" horiz-adv-x="778" d="M72 20q0 18 20.5 25.5t48 12.5t58 12.5t51.5 25.5q20 16 25.5 58.5t5.5 81.5v43l2 716q0 53 1 104.5t1 102.5v39q0 35 -6.5 76t-18.5 57q-23 23 -53.5 28t-59 7t-48 10t-19.5 37q0 20 19.5 23.5t35.5 3.5h23q59 0 119.5 -6.5t119.5 -6.5q29 0 59.5 3.5t59.5 3.5h178 q4 -4 8.5 -14.5t4.5 -16.5q0 -29 -21.5 -35t-50.5 -6q-55 0 -86 -8t-45.5 -26.5t-16.5 -45.5t-2 -63q0 -129 -3 -256t-3 -256v-523q0 -33 5 -73.5t30 -63.5q18 -16 50 -22.5t61.5 -11.5t52 -11t22.5 -25q0 -31 -29.5 -33.5t-60.5 -2.5q-57 0 -114.5 6t-114.5 6 q-61 0 -110.5 -7t-110.5 -7h-29q-20 0 -39.5 6.5t-19.5 31.5zM172 1634q0 6 13.5 35t35 68t47 84t49 84t43 67.5t27.5 34.5q18 -12 21 -16q59 -98 113 -185.5t83 -163.5q4 -12 4 -16q0 -18 -18 -14q-10 2 -35 31.5t-55.5 68.5t-61 75t-51.5 50q-23 -16 -50.5 -52t-54 -73 t-52 -64.5t-46.5 -27.5q-12 0 -12 14z" />
<glyph unicode="&#xcf;" horiz-adv-x="786" d="M72 1751q0 47 34.5 79t81.5 32q45 0 76 -35t31 -78q0 -47 -34 -75.5t-79 -28.5t-77.5 29.5t-32.5 76.5zM76 20q0 18 20.5 25.5t48 12.5t58 12.5t51.5 25.5q20 16 25.5 58.5t5.5 81.5v43l2 716q0 53 1 104.5t1 102.5v39q0 35 -6.5 76t-18.5 57q-23 23 -53.5 28t-59 7 t-48 10t-19.5 37q0 20 19.5 23.5t35.5 3.5h23q59 0 119.5 -6.5t119.5 -6.5q29 0 60 3.5t59 3.5h178q4 -4 8.5 -14.5t4.5 -16.5q0 -29 -21.5 -35t-50.5 -6q-55 0 -86 -8t-45 -26.5t-16.5 -45.5t-2.5 -63q0 -129 -3 -256t-3 -256v-523q0 -33 5.5 -73.5t29.5 -63.5 q18 -16 50 -22.5t61.5 -11.5t52.5 -11t23 -25q0 -31 -30 -33.5t-61 -2.5q-57 0 -114.5 6t-114.5 6q-61 0 -110.5 -7t-110.5 -7h-29q-20 0 -39.5 6.5t-19.5 31.5zM496 1753q0 47 30.5 78t79.5 31q47 0 78 -30t31 -77q0 -51 -34 -82t-83 -31q-6 0 -8 3q-43 4 -68.5 35.5 t-25.5 72.5z" />
<glyph unicode="&#xd0;" horiz-adv-x="1705" d="M73 1435.5q3 16.5 11 24.5t49 15.5t99.5 12.5t125 8t129 5t111.5 3t70 1q205 0 373.5 -53t289.5 -154.5t186.5 -247t65.5 -329.5q0 -176 -73.5 -313.5t-194.5 -231.5t-276.5 -143t-317.5 -49q-49 0 -81 2t-60.5 4t-60.5 4t-81 2q-86 0 -164.5 -5t-164.5 -5q-18 0 -19 18 q0 20 11.5 30.5t26.5 16.5t32.5 8t32.5 7q66 14 81 43.5t19 91.5q2 20 4 51t3 84t1 137v217h-131q-25 0 -49.5 2t-24.5 8v88q0 10 31 13.5t59 3.5h35q20 0 40 -1t40 -1v307q0 33 -1 72t-3 74.5t-5 63.5t-7 38q-14 31 -44 38t-61 7q-16 0 -32.5 -1t-32.5 -1q-18 0 -35 10 q-10 8 -7 24.5zM496 358q0 -90 11 -149t36.5 -94t64.5 -49.5t94 -14.5q143 0 263 53.5t205 146.5t132.5 218t47.5 266q0 248 -126 423t-368 247q-43 12 -88 21.5t-92 9.5h-58q2 0 -11 -1t-31.5 -7.5t-38 -19.5t-29.5 -38q-6 -20 -8 -39.5t-2 -40.5q0 -53 1 -108.5t1 -108.5 v-137v-70q0 -35 -2 -67q53 0 116.5 1t125 2t113.5 2t81 1q12 0 12 -27v-71q0 -10 -21.5 -13.5t-45.5 -3.5h-383v-332z" />
<glyph unicode="&#xd1;" horiz-adv-x="1845" d="M29 1442q0 18 21.5 28.5t35.5 10.5q45 0 88 -2t88 -2q35 0 66.5 2t66.5 2q37 0 56.5 -9.5t37 -28t38 -45t59.5 -63.5q82 -98 167 -197.5t188 -219t231 -270t298 -353.5q29 2 27 45v248q2 160 1 319.5t-1 319.5q0 29 -1 55.5t-7 52.5q-10 45 -48 56.5t-80 12.5t-76 5 t-34 37q0 20 14.5 27.5t30.5 7.5q66 0 131.5 -4t131.5 -4q53 0 107 3t108 3q45 0 45 -35q0 -25 -26 -32t-58.5 -10t-65.5 -8t-47 -24q-12 -16 -20.5 -57t-11.5 -87t-4 -89t-1 -64v-424q0 -119 -1 -268.5t-1 -351.5q0 -35 -3 -65t-30 -34q-10 -2 -20 5.5t-19.5 17.5 t-18.5 21.5t-15 19.5q-59 70 -118 139.5t-116 140.5q-2 2 -7 8.5t-25.5 30t-63.5 73.5t-121 140t-195.5 227.5t-289.5 338.5q-35 41 -71 89t-81 85q-6 -35 -6 -70q0 -111 2 -208t3 -201.5t3 -226.5t2 -281q0 -94 12.5 -137.5t38 -58.5t65.5 -17.5t97 -14.5q16 -4 31.5 -15 t15.5 -32q0 -12 -12 -16t-23 -4q-59 0 -118.5 4t-118.5 4q-68 0 -135.5 -4t-136.5 -4q-16 0 -38 6t-22 28q0 18 15.5 26.5t38 11.5t47 4t40.5 3q35 6 54.5 24.5t29 45.5t11.5 57.5t2 59.5q4 246 8 484.5t4 484.5q0 33 -3 62.5t-17.5 52t-41 39t-73.5 24.5q-12 2 -35 3 t-45.5 5t-38.5 12.5t-16 24.5zM604 1634q8 41 24.5 80t43 68.5t62.5 48t83 18.5q41 0 80 -13t76 -30.5t71.5 -31t69.5 -13.5q47 0 73.5 32t39.5 73q4 16 30 16q27 0 27 -14q0 -10 -1 -19.5t-3 -19.5q-6 -37 -26.5 -71t-49 -59.5t-64.5 -41t-75 -15.5q-35 0 -74 14.5t-78 31 t-76.5 31t-70.5 14.5q-49 0 -70.5 -32t-40.5 -69q0 -12 -26 -12q-8 0 -16.5 4t-8.5 10z" />
<glyph unicode="&#xd2;" horiz-adv-x="1812" d="M123 723q0 170 57.5 315.5t160.5 252t244.5 167t309.5 60.5q162 0 306.5 -56.5t253 -158t172 -242.5t63.5 -313q0 -164 -62.5 -310.5t-172 -256t-257 -174t-315.5 -64.5q-166 0 -306.5 58t-240.5 162.5t-156.5 247t-56.5 312.5zM347 892q-1 -126 22 -243 q20 -121 70 -241.5t132 -213t199 -139.5t272 -18q152 27 240 111.5t129 200.5t43 245t-18 246q-25 131 -80.5 249.5t-140.5 203.5t-199.5 125t-257.5 14q-154 -29 -242 -111t-128 -192.5t-41 -236.5zM626 1901.5q-1 9.5 15 23.5q12 10 17.5 14.5t11.5 8.5l15 10q9 6 28 20 q10 16 24.5 9t18.5 -17q10 -20 41.5 -70.5t66.5 -104.5t62.5 -101t29.5 -62q6 -20 -9 -30.5t-34 8.5q-20 18 -59 54t-81 77t-79 77.5t-55 59.5q-12 14 -13 23.5z" />
<glyph unicode="&#xd3;" horiz-adv-x="1812" d="M123 723q0 170 57.5 315.5t160.5 252t244.5 167t309.5 60.5q162 0 306.5 -56.5t253 -158t172 -242.5t63.5 -313q0 -164 -62.5 -310.5t-172 -256t-257 -174t-315.5 -64.5q-166 0 -306.5 58t-240.5 162.5t-156.5 247t-56.5 312.5zM347 892q-1 -126 22 -243 q20 -121 70 -241.5t132 -213t199 -139.5t272 -18q152 27 240 111.5t129 200.5t43 245t-18 246q-25 131 -80.5 249.5t-140.5 203.5t-199.5 125t-257.5 14q-154 -29 -242 -111t-128 -192.5t-41 -236.5zM868 1657q10 27 33 75t47.5 100t48 99t37.5 72q10 16 19.5 20.5 t27.5 -8.5q12 -10 18.5 -13t11.5 -7t14 -10l28 -19q16 -6 15 -21.5t-11 -23.5q-14 -16 -51 -62.5t-78 -96.5t-77 -91t-46 -47q-18 -12 -33.5 -1t-3.5 34z" />
<glyph unicode="&#xd4;" horiz-adv-x="1812" d="M123 723q0 170 57.5 315.5t160.5 252t244.5 167t309.5 60.5q162 0 306.5 -56.5t253 -158t172 -242.5t63.5 -313q0 -164 -62.5 -310.5t-172 -256t-257 -174t-315.5 -64.5q-166 0 -306.5 58t-240.5 162.5t-156.5 247t-56.5 312.5zM347 892q-1 -126 22 -243 q20 -121 70 -241.5t132 -213t199 -139.5t272 -18q152 27 240 111.5t129 200.5t43 245t-18 246q-25 131 -80.5 249.5t-140.5 203.5t-199.5 125t-257.5 14q-154 -29 -242 -111t-128 -192.5t-41 -236.5zM688 1636q0 6 13.5 35t35 68t47 84t49 84t43 67.5t27.5 34.5 q18 -12 21 -16q59 -98 113.5 -185.5t82.5 -162.5q4 -12 4 -17q0 -18 -18 -14q-10 2 -34.5 31.5t-55.5 68.5t-61.5 75t-51.5 50q-23 -16 -50.5 -52t-54 -73t-52 -64.5t-46.5 -27.5q-12 0 -12 14z" />
<glyph unicode="&#xd5;" horiz-adv-x="1812" d="M123 723q0 170 57.5 315.5t160.5 252t244.5 167t309.5 60.5q162 0 306.5 -56.5t253 -158t172 -242.5t63.5 -313q0 -164 -62.5 -310.5t-172 -256t-257 -174t-315.5 -64.5q-166 0 -306.5 58t-240.5 162.5t-156.5 247t-56.5 312.5zM347 892q-1 -126 22 -243 q20 -121 70 -241.5t132 -213t199 -139.5t272 -18q152 27 240 111.5t129 200.5t43 245t-18 246q-25 131 -80.5 249.5t-140.5 203.5t-199.5 125t-257.5 14q-154 -29 -242 -111t-128 -192.5t-41 -236.5zM567 1669q8 41 24.5 80t43.5 68.5t62.5 48t82.5 18.5q41 0 80 -13 t76 -30.5t71.5 -31t69.5 -13.5q47 0 74 32t39 73q4 16 31 16t26 -14q0 -10 -1 -19.5t-3 -19.5q-6 -37 -26.5 -71t-49 -59.5t-64.5 -41t-75 -15.5q-35 0 -74 14.5t-77.5 31t-76.5 30.5t-71 14q-49 0 -70.5 -31.5t-40.5 -68.5q0 -12 -26 -12q-8 0 -16.5 4t-8.5 10z" />
<glyph unicode="&#xd6;" horiz-adv-x="1812" d="M123 723q0 170 57.5 315.5t160.5 252t244.5 167t309.5 60.5q162 0 306.5 -56.5t253 -158t172 -242.5t63.5 -313q0 -164 -62.5 -310.5t-172 -256t-257 -174t-315.5 -64.5q-166 0 -306.5 58t-240.5 162.5t-156.5 247t-56.5 312.5zM347 892q-1 -126 22 -243 q20 -121 70 -241.5t132 -213t199 -139.5t272 -18q152 27 240 111.5t129 200.5t43 245t-18 246q-25 131 -80.5 249.5t-140.5 203.5t-199.5 125t-257.5 14q-154 -29 -242 -111t-128 -192.5t-41 -236.5zM584 1767q0 47 34.5 79t81.5 32q45 0 76 -35t31 -78q0 -47 -34 -75.5 t-79 -28.5t-77.5 29.5t-32.5 76.5zM1008 1769q0 47 30.5 78t79.5 31q47 0 78 -29.5t31 -76.5q0 -51 -34 -82t-83 -31q-6 0 -8 2q-43 4 -68.5 35.5t-25.5 72.5z" />
<glyph unicode="&#xd7;" horiz-adv-x="804" d="M76 272q39 35 93 90.5t144 145.5l-229 231q10 39 26.5 58.5t65.5 33.5q59 -61 117 -118l110 -111l232 229q39 -10 58.5 -26.5t33.5 -65.5q-61 -59 -120.5 -117.5t-112.5 -113.5l245 -244q-8 -12 -18 -23.5t-21 -21.5q-12 -10 -26.5 -23.5t-30.5 -15.5q-35 39 -91 94.5 t-149 147.5l-243 -246q-12 8 -23.5 18.5t-21.5 20.5q-10 12 -23.5 26.5t-15.5 30.5z" />
<glyph unicode="&#xd8;" horiz-adv-x="1812" d="M123 723q0 170 57.5 315.5t160.5 252t244.5 167t309.5 60.5q66 0 130.5 -10.5t123.5 -28.5q12 35 23.5 68.5t21.5 66.5q41 12 94 2q-20 -80 -55 -168q100 -43 184 -111.5t144.5 -159t94.5 -199t34 -230.5q0 -164 -62.5 -310.5t-172 -256t-257 -174t-315.5 -64.5 q-96 0 -197 22q-16 -47 -30.5 -90t-26.5 -84q-10 0 -25.5 -2t-66.5 2q16 47 34.5 97.5t36.5 101.5q-111 39 -201 108.5t-152 164.5t-97 211t-35 249zM347 892q-1 -126 22 -243q12 -74 35.5 -149.5t59.5 -146t83 -131t106 -105.5q55 150 114.5 310.5t119 322t117 320.5 t108.5 304q-74 43 -162 59.5t-192 -1.5q-154 -29 -242 -111t-128 -192.5t-41 -236.5zM725 74q66 -33 144.5 -44.5t172.5 7.5q152 27 240 111.5t129 200.5t43 245t-18 246q-27 141 -89.5 268t-160.5 213q-10 -25 -18.5 -48.5t-18.5 -45.5q-43 -115 -96.5 -256.5t-109.5 -293 t-112.5 -307t-105.5 -296.5z" />
<glyph unicode="&#xd9;" horiz-adv-x="1662" d="M29 1442q0 39 41 39q66 0 130 -6.5t130 -6.5q72 0 140.5 6.5t139.5 6.5q16 0 41 -4t25 -27q0 -29 -27.5 -37t-62.5 -14t-69 -16.5t-48 -43.5q-6 -14 -10 -40.5t-7 -59.5t-4.5 -67.5t-1.5 -65.5v-377q0 -63 1.5 -126.5t5.5 -127.5q8 -127 39.5 -209t84 -129t124 -65.5 t159.5 -18.5q104 0 179 19.5t127.5 64.5t85 116t51.5 175q12 57 12 119v438q0 47 2 106.5t2 114.5t-6 99.5t-25 60.5q-18 16 -47 20.5t-56.5 9.5t-47 16t-19.5 40q0 20 14.5 24.5t30.5 4.5q53 0 107.5 -4t107.5 -4q55 0 110.5 3t110.5 3q29 -10 29 -31q0 -23 -24.5 -35 t-57.5 -19.5t-62.5 -11.5t-39.5 -10q-14 -8 -20.5 -64.5t-7.5 -132t0 -157.5t1 -144q0 -55 1 -110t1 -111q0 -90 -5 -188t-31.5 -187.5t-80 -161t-151.5 -110.5q-86 -33 -178 -46t-180 -13q-104 0 -198.5 19.5t-168.5 66.5t-121 125t-59 196q-2 18 -3 37t-1 37v76 q0 174 4 344t4 344q0 29 -1 65.5t-10.5 68.5t-31 54.5t-62.5 22.5h-22q-10 0 -25.5 1t-31 4t-26.5 11.5t-11 22.5zM624 1883q-1 9 15 24q12 10 17.5 14t11.5 8l15 10q9 6 28 21q10 16 24.5 9t18.5 -17q10 -20 41.5 -70.5t66.5 -105t62.5 -101.5t29.5 -61q6 -20 -9 -30.5 t-34 7.5q-20 18 -59 54t-81 77t-79 78t-55 60q-12 14 -13 23z" />
<glyph unicode="&#xda;" horiz-adv-x="1662" d="M29 1442q0 39 41 39q66 0 130 -6.5t130 -6.5q72 0 140.5 6.5t139.5 6.5q16 0 41 -4t25 -27q0 -29 -27.5 -37t-62.5 -14t-69 -16.5t-48 -43.5q-6 -14 -10 -40.5t-7 -59.5t-4.5 -67.5t-1.5 -65.5v-377q0 -63 1.5 -126.5t5.5 -127.5q8 -127 39.5 -209t84 -129t124 -65.5 t159.5 -18.5q104 0 179 19.5t127.5 64.5t85 116t51.5 175q12 57 12 119v438q0 47 2 106.5t2 114.5t-6 99.5t-25 60.5q-18 16 -47 20.5t-56.5 9.5t-47 16t-19.5 40q0 20 14.5 24.5t30.5 4.5q53 0 107.5 -4t107.5 -4q55 0 110.5 3t110.5 3q29 -10 29 -31q0 -23 -24.5 -35 t-57.5 -19.5t-62.5 -11.5t-39.5 -10q-14 -8 -20.5 -64.5t-7.5 -132t0 -157.5t1 -144q0 -55 1 -110t1 -111q0 -90 -5 -188t-31.5 -187.5t-80 -161t-151.5 -110.5q-86 -33 -178 -46t-180 -13q-104 0 -198.5 19.5t-168.5 66.5t-121 125t-59 196q-2 18 -3 37t-1 37v76 q0 174 4 344t4 344q0 29 -1 65.5t-10.5 68.5t-31 54.5t-62.5 22.5h-22q-10 0 -25.5 1t-31 4t-26.5 11.5t-11 22.5zM874 1622q10 27 33 75t47.5 100t48 99.5t37.5 71.5q10 16 19.5 20.5t27.5 -8.5q12 -10 18.5 -13t11.5 -7t15 -10l27 -19q16 -6 15.5 -21.5t-11.5 -23.5 q-14 -16 -51 -62t-78 -96.5t-76.5 -91.5t-46.5 -47q-18 -12 -33.5 -1t-3.5 34z" />
<glyph unicode="&#xdb;" horiz-adv-x="1662" d="M29 1442q0 39 41 39q66 0 130 -6.5t130 -6.5q72 0 140.5 6.5t139.5 6.5q16 0 41 -4t25 -27q0 -29 -27.5 -37t-62.5 -14t-69 -16.5t-48 -43.5q-6 -14 -10 -40.5t-7 -59.5t-4.5 -67.5t-1.5 -65.5v-377q0 -63 1.5 -126.5t5.5 -127.5q8 -127 39.5 -209t84 -129t124 -65.5 t159.5 -18.5q104 0 179 19.5t127.5 64.5t85 116t51.5 175q12 57 12 119v438q0 47 2 106.5t2 114.5t-6 99.5t-25 60.5q-18 16 -47 20.5t-56.5 9.5t-47 16t-19.5 40q0 20 14.5 24.5t30.5 4.5q53 0 107.5 -4t107.5 -4q55 0 110.5 3t110.5 3q29 -10 29 -31q0 -23 -24.5 -35 t-57.5 -19.5t-62.5 -11.5t-39.5 -10q-14 -8 -20.5 -64.5t-7.5 -132t0 -157.5t1 -144q0 -55 1 -110t1 -111q0 -90 -5 -188t-31.5 -187.5t-80 -161t-151.5 -110.5q-86 -33 -178 -46t-180 -13q-104 0 -198.5 19.5t-168.5 66.5t-121 125t-59 196q-2 18 -3 37t-1 37v76 q0 174 4 344t4 344q0 29 -1 65.5t-10.5 68.5t-31 54.5t-62.5 22.5h-22q-10 0 -25.5 1t-31 4t-26.5 11.5t-11 22.5zM702 1636q0 6 13.5 35t35 68t47 84t49 84t43 67.5t28.5 34.5q18 -12 20 -16q59 -98 113.5 -185.5t83.5 -162.5q4 -12 4 -17q0 -18 -19 -14q-10 2 -34.5 31.5 t-55.5 68.5t-61.5 75t-50.5 50q-23 -16 -50.5 -52t-54.5 -73t-52.5 -64.5t-45.5 -27.5q-13 0 -13 14z" />
<glyph unicode="&#xdc;" horiz-adv-x="1662" d="M29 1442q0 39 41 39q66 0 130 -6.5t130 -6.5q72 0 140.5 6.5t139.5 6.5q16 0 41 -4t25 -27q0 -29 -27.5 -37t-62.5 -14t-69 -16.5t-48 -43.5q-6 -14 -10 -40.5t-7 -59.5t-4.5 -67.5t-1.5 -65.5v-377q0 -63 1.5 -126.5t5.5 -127.5q8 -127 39.5 -209t84 -129t124 -65.5 t159.5 -18.5q104 0 179 19.5t127.5 64.5t85 116t51.5 175q12 57 12 119v438q0 47 2 106.5t2 114.5t-6 99.5t-25 60.5q-18 16 -47 20.5t-56.5 9.5t-47 16t-19.5 40q0 20 14.5 24.5t30.5 4.5q53 0 107.5 -4t107.5 -4q55 0 110.5 3t110.5 3q29 -10 29 -31q0 -23 -24.5 -35 t-57.5 -19.5t-62.5 -11.5t-39.5 -10q-14 -8 -20.5 -64.5t-7.5 -132t0 -157.5t1 -144q0 -55 1 -110t1 -111q0 -90 -5 -188t-31.5 -187.5t-80 -161t-151.5 -110.5q-86 -33 -178 -46t-180 -13q-104 0 -198.5 19.5t-168.5 66.5t-121 125t-59 196q-2 18 -3 37t-1 37v76 q0 174 4 344t4 344q0 29 -1 65.5t-10.5 68.5t-31 54.5t-62.5 22.5h-22q-10 0 -25.5 1t-31 4t-26.5 11.5t-11 22.5zM580 1753q0 47 34.5 79t81.5 32q45 0 76 -35t31 -78q0 -47 -34 -75.5t-79 -28.5t-77.5 29.5t-32.5 76.5zM1004 1755q0 47 30.5 78t79.5 31q47 0 78 -30 t31 -77q0 -51 -34 -81.5t-83 -30.5q-6 0 -8 2q-43 4 -68.5 35.5t-25.5 72.5z" />
<glyph unicode="&#xdd;" horiz-adv-x="1603" d="M20 1458q0 20 14.5 22.5t31.5 2.5q57 0 112 -8.5t113 -8.5q78 0 156.5 7.5t158.5 7.5q10 0 25.5 -10.5t15.5 -20.5q0 -31 -28.5 -36t-62.5 -6t-62.5 -6t-28.5 -34q0 -23 19.5 -57.5t45 -72.5t53 -74t46.5 -60q49 -72 98 -142.5t102 -136.5q6 -8 11.5 -15t15.5 -11 q6 2 13.5 8t11.5 10q12 12 43.5 54t73.5 98.5t87 121t83 120t62.5 94t24.5 47.5q0 35 -28.5 44t-62.5 11t-62.5 7t-28.5 34q0 25 11.5 28t31.5 3q47 0 94 -6.5t95 -6.5q53 0 105 7.5t106 7.5q29 0 52 -10.5t11 -36.5q-8 -16 -28.5 -21.5t-45 -9.5t-51.5 -14.5t-49 -36.5 q-76 -88 -146.5 -180.5t-142.5 -184.5q-33 -41 -72.5 -87t-75.5 -94t-59.5 -97.5t-23.5 -94.5v-407q0 -55 16.5 -85t41 -42t54 -14.5t57 -3.5t48 -6t28.5 -25q0 -18 -8 -32.5t-30 -14.5q-80 0 -161 7t-161 7q-74 0 -146.5 -7t-146.5 -7q-6 0 -14 2t-8 12q-10 31 12 42t58 16 t74 11.5t60 30.5q10 12 16.5 40t9.5 64t4 76.5t1 77.5v181q0 63 -2 106t-26 78q-111 160 -220.5 312.5t-220.5 312.5q-23 33 -57.5 47t-66 21t-54.5 14t-23 30zM862 1587q10 27 33 75t47.5 100.5t48 99.5t37.5 71q10 16 19.5 20.5t27.5 -7.5q12 -10 18.5 -13.5t11.5 -7.5 t14 -10l28 -19q16 -6 15 -21t-11 -24q-14 -16 -51 -62t-78 -96.5t-77 -91t-46 -47.5q-18 -12 -33.5 -1t-3.5 34z" />
<glyph unicode="&#xde;" horiz-adv-x="1257" d="M72 20q0 18 20.5 25.5t48 12.5t58 12.5t51.5 25.5q20 16 25.5 58.5t5.5 81.5v43l2 692q0 53 1 104t1 103v43q0 41 -6.5 89t-18.5 64q-23 23 -53.5 28t-59 7t-48 10t-19.5 37q0 20 19.5 23.5t35.5 3.5h23q59 0 119.5 -6.5t119.5 -6.5q29 0 59.5 3.5t59.5 3.5h178 q4 -4 8.5 -14.5t4.5 -16.5q0 -29 -21.5 -35t-50.5 -6q-55 0 -86 -8t-45.5 -26.5t-16.5 -45.5t-2 -63v-117l129 12q276 25 414.5 -97t138.5 -351q0 -96 -38.5 -175t-104.5 -136.5t-155 -89.5t-187 -32q-35 0 -42 6l-22 15q-4 4 -9 15.5t-6 23.5t2 21.5t13 9.5q6 -2 11 -2 q74 2 134 27.5t102 70.5t65.5 106.5t23.5 135.5q0 70 -12 136t-49 118.5t-105.5 84t-181.5 33.5q-23 0 -49.5 -8t-44.5 -25q-20 -18 -26.5 -60t-6.5 -79v-678q0 -33 5 -73.5t30 -63.5q18 -16 50 -22.5t61.5 -11.5t52 -11t22.5 -25q0 -31 -29.5 -33.5t-60.5 -2.5 q-57 0 -114.5 6t-114.5 6q-61 0 -110.5 -7t-110.5 -7h-29q-20 0 -39.5 6.5t-19.5 31.5z" />
<glyph unicode="&#xdf;" horiz-adv-x="1277" d="M94 10q0 29 24.5 35t55.5 13.5t55.5 29t24.5 80.5v569q0 27 -6 56q-10 2 -21 2h-24q-37 0 -73 5t-36 29q0 45 34 53.5t73 8.5q29 0 51 12q4 100 14 197.5t41 195.5q49 150 165 243t276 93q68 0 128 -22.5t105 -63.5t71.5 -99t26.5 -130q0 -76 -28.5 -139.5t-72.5 -115.5 t-97.5 -96t-102.5 -79q68 -35 139.5 -86t131 -117t97.5 -143.5t38 -165.5q0 -82 -24.5 -156t-70 -130t-107.5 -90t-138 -34q-25 0 -70 5t-90 18.5t-78 35t-33 54.5l2 69q0 23 -1 45.5t-1 51.5q2 10 11.5 12t17.5 2q12 0 17.5 -8t9.5 -19q16 -37 31.5 -73.5t40 -64t63.5 -45 t104 -17.5q39 0 67 19.5t44 48t24.5 64.5t8.5 68q0 82 -21.5 165t-57.5 157t-82 134.5t-97 96.5q-23 14 -46.5 25.5t-40 24t-19.5 28t18 39.5l18 14q18 14 41 31t43 33t27 22q57 53 90 126t33 151q0 55 -12.5 104.5t-40 85t-71.5 56t-106 20.5q-104 0 -159.5 -55t-80 -136 t-27.5 -171t-3 -158q0 -70 -1 -180.5t-1 -233.5t-1 -240.5t-1 -199.5q0 -37 3 -57.5t6 -33.5l6 -27q3 -13 3 -36q0 -14 -25.5 -18t-66.5 -4q-39 0 -90 1t-103 -5q-10 -2 -31.5 1t-21.5 19z" />
<glyph unicode="&#xe0;" d="M96 178q0 45 23.5 83t59.5 68.5t78 53.5t79 37q72 27 130 46t132 38v158q0 86 -31.5 138t-124.5 52q-61 0 -98 -21.5t-58.5 -51t-29.5 -58.5l-12 -43q-10 -33 -43 -55.5t-72 -22.5q-23 0 -27 19.5t-4 35.5q0 49 41 101.5t100.5 97.5t129 73.5t127.5 28.5q14 0 35.5 -3 t44 -7t43 -10t32.5 -12q68 -35 84.5 -91.5t16.5 -125.5q0 -78 -2 -165t-2 -165q0 -18 -1.5 -54t0 -74t4.5 -72t11 -46q8 -14 24.5 -19.5t32.5 -5.5q23 0 37 7.5t24.5 16.5t18.5 17.5t19 10.5q25 6 24 -15q0 -2 -4 -18q-16 -66 -69.5 -105.5t-120.5 -39.5q-68 0 -107 43 t-55 104q-23 -31 -56.5 -59.5t-74.5 -52t-85 -37t-85 -13.5q-104 0 -146.5 60.5t-42.5 152.5zM218 1377q-1 9 15 24q12 10 17.5 14t11.5 8l16 11q9 6 27 20q10 16 24.5 9t18.5 -17q10 -20 42 -70.5t67 -104.5t62.5 -101.5t29.5 -61.5q6 -20 -9.5 -30.5t-33.5 7.5 q-20 18 -59 54.5t-81 77t-79 77.5t-56 60q-12 14 -13 23zM262 209q0 -57 26.5 -94t92.5 -37q43 0 87 21.5t73 52.5q16 16 34.5 47.5t20.5 54.5q0 14 1 19.5t1 7.5v90q0 20 -1 35.5t-3 25.5q-18 -4 -43 -11t-50.5 -16.5t-49 -18.5t-41.5 -15q-55 -20 -101.5 -59.5 t-46.5 -102.5z" />
<glyph unicode="&#xe1;" d="M96 178q0 45 23.5 83t59.5 68.5t78 53.5t79 37q72 27 130 46t132 38v158q0 86 -31.5 138t-124.5 52q-61 0 -98 -21.5t-58.5 -51t-29.5 -58.5l-12 -43q-10 -33 -43 -55.5t-72 -22.5q-23 0 -27 19.5t-4 35.5q0 49 41 101.5t100.5 97.5t129 73.5t127.5 28.5q14 0 35.5 -3 t44 -7t43 -10t32.5 -12q68 -35 84.5 -91.5t16.5 -125.5q0 -78 -2 -165t-2 -165q0 -18 -1.5 -54t0 -74t4.5 -72t11 -46q8 -14 24.5 -19.5t32.5 -5.5q23 0 37 7.5t24.5 16.5t18.5 17.5t19 10.5q25 6 24 -15q0 -2 -4 -18q-16 -66 -69.5 -105.5t-120.5 -39.5q-68 0 -107 43 t-55 104q-23 -31 -56.5 -59.5t-74.5 -52t-85 -37t-85 -13.5q-104 0 -146.5 60.5t-42.5 152.5zM262 209q0 -57 26.5 -94t92.5 -37q43 0 87 21.5t73 52.5q16 16 34.5 47.5t20.5 54.5q0 14 1 19.5t1 7.5v90q0 20 -1 35.5t-3 25.5q-18 -4 -43 -11t-50.5 -16.5t-49 -18.5 t-41.5 -15q-55 -20 -101.5 -59.5t-46.5 -102.5zM375 1106q10 27 32.5 75t47 100t48 99t38.5 72q10 16 19 20.5t28 -8.5q12 -10 18 -13t11.5 -7t14.5 -10l27 -19q16 -6 15.5 -21.5t-10.5 -23.5q-14 -16 -51.5 -62t-78 -96.5t-76.5 -91.5t-46 -47q-18 -12 -33.5 -1t-3.5 34z " />
<glyph unicode="&#xe2;" d="M96 178q0 45 23.5 83t59.5 68.5t78 53.5t79 37q72 27 130 46t132 38v158q0 86 -31.5 138t-124.5 52q-61 0 -98 -21.5t-58.5 -51t-29.5 -58.5l-12 -43q-10 -33 -43 -55.5t-72 -22.5q-23 0 -27 19.5t-4 35.5q0 49 41 101.5t100.5 97.5t129 73.5t127.5 28.5q14 0 35.5 -3 t44 -7t43 -10t32.5 -12q68 -35 84.5 -91.5t16.5 -125.5q0 -78 -2 -165t-2 -165q0 -18 -1.5 -54t0 -74t4.5 -72t11 -46q8 -14 24.5 -19.5t32.5 -5.5q23 0 37 7.5t24.5 16.5t18.5 17.5t19 10.5q25 6 24 -15q0 -2 -4 -18q-16 -66 -69.5 -105.5t-120.5 -39.5q-68 0 -107 43 t-55 104q-23 -31 -56.5 -59.5t-74.5 -52t-85 -37t-85 -13.5q-104 0 -146.5 60.5t-42.5 152.5zM238 1112q0 6 13 35t34.5 67.5t47 83.5t49.5 84t43 68t28 35q18 -12 20 -17q59 -98 113.5 -185t83.5 -163q4 -12 4 -16q0 -18 -19 -14q-10 2 -34.5 31.5t-55 68.5t-61.5 74.5 t-51 50.5q-23 -16 -50.5 -52t-54 -73t-52.5 -64.5t-46 -27.5q-12 0 -12 14zM262 209q0 -57 26.5 -94t92.5 -37q43 0 87 21.5t73 52.5q16 16 34.5 47.5t20.5 54.5q0 14 1 19.5t1 7.5v90q0 20 -1 35.5t-3 25.5q-18 -4 -43 -11t-50.5 -16.5t-49 -18.5t-41.5 -15 q-55 -20 -101.5 -59.5t-46.5 -102.5z" />
<glyph unicode="&#xe3;" d="M96 178q0 45 23.5 83t59.5 68.5t78 53.5t79 37q72 27 130 46t132 38v158q0 86 -31.5 138t-124.5 52q-61 0 -98 -21.5t-58.5 -51t-29.5 -58.5l-12 -43q-10 -33 -43 -55.5t-72 -22.5q-23 0 -27 19.5t-4 35.5q0 49 41 101.5t100.5 97.5t129 73.5t127.5 28.5q14 0 35.5 -3 t44 -7t43 -10t32.5 -12q68 -35 84.5 -91.5t16.5 -125.5q0 -78 -2 -165t-2 -165q0 -18 -1.5 -54t0 -74t4.5 -72t11 -46q8 -14 24.5 -19.5t32.5 -5.5q23 0 37 7.5t24.5 16.5t18.5 17.5t19 10.5q25 6 24 -15q0 -2 -4 -18q-16 -66 -69.5 -105.5t-120.5 -39.5q-68 0 -107 43 t-55 104q-23 -31 -56.5 -59.5t-74.5 -52t-85 -37t-85 -13.5q-104 0 -146.5 60.5t-42.5 152.5zM111 1106q8 41 24.5 80t43 68.5t62 48t83.5 18.5q41 0 79.5 -13.5t75.5 -30.5t72 -30.5t70 -13.5q47 0 73.5 31.5t38.5 72.5q4 16 31 17q27 0 27 -15q0 -10 -1.5 -19t-3.5 -20 q-6 -37 -26.5 -70.5t-49 -59t-64.5 -41t-75 -15.5q-35 0 -73.5 14.5t-77.5 31t-77 30.5t-71 14q-49 0 -70.5 -31.5t-39.5 -68.5q0 -12 -27 -12q-8 0 -16 4t-8 10zM262 209q0 -57 26.5 -94t92.5 -37q43 0 87 21.5t73 52.5q16 16 34.5 47.5t20.5 54.5q0 14 1 19.5t1 7.5v90 q0 20 -1 35.5t-3 25.5q-18 -4 -43 -11t-50.5 -16.5t-49 -18.5t-41.5 -15q-55 -20 -101.5 -59.5t-46.5 -102.5z" />
<glyph unicode="&#xe4;" d="M96 178q0 45 23.5 83t59.5 68.5t78 53.5t79 37q72 27 130 46t132 38v158q0 86 -31.5 138t-124.5 52q-61 0 -98 -21.5t-58.5 -51t-29.5 -58.5l-12 -43q-10 -33 -43 -55.5t-72 -22.5q-23 0 -27 19.5t-4 35.5q0 49 41 101.5t100.5 97.5t129 73.5t127.5 28.5q14 0 35.5 -3 t44 -7t43 -10t32.5 -12q68 -35 84.5 -91.5t16.5 -125.5q0 -78 -2 -165t-2 -165q0 -18 -1.5 -54t0 -74t4.5 -72t11 -46q8 -14 24.5 -19.5t32.5 -5.5q23 0 37 7.5t24.5 16.5t18.5 17.5t19 10.5q25 6 24 -15q0 -2 -4 -18q-16 -66 -69.5 -105.5t-120.5 -39.5q-68 0 -107 43 t-55 104q-23 -31 -56.5 -59.5t-74.5 -52t-85 -37t-85 -13.5q-104 0 -146.5 60.5t-42.5 152.5zM121 1210q0 47 34.5 79t82.5 32q45 0 75.5 -35t30.5 -78q0 -47 -34 -75.5t-79 -28.5t-77.5 29.5t-32.5 76.5zM262 209q0 -57 26.5 -94t92.5 -37q43 0 87 21.5t73 52.5 q16 16 34.5 47.5t20.5 54.5q0 14 1 19.5t1 7.5v90q0 20 -1 35.5t-3 25.5q-18 -4 -43 -11t-50.5 -16.5t-49 -18.5t-41.5 -15q-55 -20 -101.5 -59.5t-46.5 -102.5zM545 1212q0 47 30.5 78t79.5 31q47 0 78 -29.5t31 -77.5q0 -51 -34 -81.5t-83 -30.5q-6 0 -8 2 q-43 4 -68.5 35.5t-25.5 72.5z" />
<glyph unicode="&#xe5;" d="M96 172q0 45 23.5 83t59.5 68.5t78 53t79 37.5q72 27 130 46t132 38v149q0 86 -31.5 139.5t-124.5 53.5q-61 0 -98 -19.5t-58.5 -46t-29.5 -53.5t-12 -41q-10 -33 -43 -56.5t-72 -23.5q-23 0 -27 19.5t-4 35.5q0 49 41 99.5t100.5 92.5t129 68.5t127.5 26.5q14 0 35.5 -3 t44 -7t43 -10.5t32.5 -12.5q68 -35 84.5 -91t16.5 -126q0 -78 -2 -157.5t-2 -157.5q0 -18 -1.5 -54t0 -74t4.5 -72t11 -46q8 -14 24.5 -19.5t32.5 -5.5q23 0 37 7.5t24.5 16.5t18.5 17.5t19 10.5q25 6 24 -15q0 -2 -4 -18q-16 -66 -69.5 -105.5t-120.5 -39.5q-68 0 -107 43 t-55 104q-23 -31 -56.5 -59.5t-74.5 -52t-85 -37t-85 -13.5q-104 0 -146.5 57.5t-42.5 149.5zM262 203q0 -57 26.5 -91t92.5 -34q43 0 87 21.5t73 52.5q16 16 34.5 47.5t20.5 54.5q0 14 1 19.5t1 7.5v88q0 18 -1 32.5t-3 24.5q-18 -4 -43 -11t-50.5 -16.5t-49 -18.5 t-41.5 -15q-55 -20 -101.5 -59.5t-46.5 -102.5zM283 1217q0 35 14 67.5t38.5 58t56.5 41t67 15.5q88 0 143 -55.5t55 -137.5q0 -41 -15 -75.5t-42 -60.5t-62.5 -41t-74.5 -15q-12 0 -17 4q-33 2 -62.5 21.5t-52 48t-35.5 62.5t-13 67zM356 1214q0 -20 8.5 -41.5t22.5 -40 t32.5 -30.5t39.5 -15q2 -2 10 -2q51 0 87 35t36 86t-38 87t-87 36q-45 0 -78 -35t-33 -80z" />
<glyph unicode="&#xe6;" horiz-adv-x="1431" d="M96 172q0 45 23.5 83t59.5 68.5t78 53t79 37.5q72 27 130 46t132 38v149q0 86 -31.5 139.5t-124.5 53.5q-61 0 -98 -19.5t-58.5 -46t-29.5 -53.5t-12 -41q-10 -33 -43 -56.5t-72 -23.5q-23 0 -27 19.5t-4 35.5q0 49 41 99.5t100.5 92.5t129 68.5t127.5 26.5q14 0 35.5 -3 t44 -7t43 -10.5t32.5 -12.5q55 -31 76 -75q47 53 112.5 84.5t151.5 31.5q123 0 210 -52t124 -175q8 -27 13 -53.5t8 -53.5q0 -27 -9 -41q-10 -2 -21 -3t-22 -1h-510q-8 0 -20 -4q-6 0 -8 -16t-2 -33v-16q2 -84 19.5 -160t56 -133t102 -91t158.5 -34q39 0 68.5 6t55 18.5 t51 31t56.5 40.5q2 2 16 2t15 -12q0 -10 -11.5 -26.5t-26 -33t-29.5 -30.5t-23 -21q-63 -53 -123 -76.5t-142 -23.5q-131 0 -220 60.5t-136 164.5l-55 -57q-23 -31 -56.5 -59.5t-74.5 -52t-85 -37t-85 -13.5q-104 0 -146.5 57.5t-42.5 149.5zM262 203q0 -57 26.5 -91 t92.5 -34q43 0 87 21.5t73 52.5q16 16 34.5 47.5t20.5 54.5v158q0 4 -1 7t-1 7q-18 -4 -43 -11t-50.5 -16.5t-49 -18.5t-41.5 -15q-55 -20 -101.5 -59.5t-46.5 -102.5zM774 651q0 -8 13.5 -11t31 -4t33.5 0t20 1q57 0 95.5 -1t93.5 3q25 2 45 4t35.5 8t25 21.5t9.5 44.5 q0 35 -15.5 67.5t-40 57t-56.5 39t-65 14.5q-43 0 -84 -21.5t-72.5 -56.5t-50 -79t-18.5 -87z" />
<glyph unicode="&#xe7;" horiz-adv-x="937" d="M102 424q-2 104 31 198.5t95.5 167t149.5 115.5t193 43q33 0 83.5 -6t95.5 -22.5t77.5 -45t32.5 -73.5q2 -35 -20.5 -54.5t-55.5 -19.5t-59.5 24.5t-53 54.5t-57 54.5t-71.5 24.5q-78 0 -131.5 -38t-87 -97.5t-48 -130t-14.5 -138.5q0 -74 18.5 -145.5t57.5 -127.5 t98.5 -91t141.5 -35h45q53 0 100 22.5t88 55.5q10 8 19.5 15t19.5 13q12 -10 12 -24q0 -18 -14 -36.5t-25 -33.5q-12 -16 -33.5 -33.5t-47 -34t-51 -28.5t-44.5 -18q-72 -23 -131 -23q-14 -29 -27.5 -57.5t-25.5 -61.5q16 0 34.5 3t34.5 3q78 0 129.5 -42t51.5 -121 q0 -49 -24.5 -84t-64.5 -57.5t-91.5 -34t-102.5 -11.5q-49 0 -101.5 13.5t-95.5 37.5q4 16 12.5 37t18.5 31q37 0 81 -19.5t89 -19.5q43 0 83 25.5t40 72.5q0 43 -31.5 65.5t-70.5 22.5q-16 0 -34 -3t-34 -3q-12 0 -18.5 6.5t-16.5 14.5q12 39 34 90t44 100 q-78 14 -139.5 57.5t-103.5 104.5t-63.5 138t-21.5 159z" />
<glyph unicode="&#xe8;" horiz-adv-x="940" d="M104 399q-2 96 18.5 194.5t68 177.5t124 129t185.5 50q123 0 210 -52t124 -175q8 -27 13 -53.5t7 -53.5q0 -27 -8 -41q-10 -2 -21.5 -3t-21.5 -1h-510q-8 0 -21 -4q-6 0 -8 -16t-2 -33v-16q2 -84 19.5 -160t56.5 -133t102.5 -91t157.5 -34q39 0 68.5 6t55.5 18.5t51.5 31 t55.5 40.5q2 2 17 2q14 0 14 -12q0 -10 -11 -26.5t-25.5 -33t-30 -30.5t-23.5 -21q-63 -53 -122.5 -76.5t-141.5 -23.5q-96 0 -170 34t-125 94t-78 140t-29 172zM283 651q0 -8 13 -11t30.5 -4t34 0t20.5 1q57 0 95 -1t93 3q25 2 45.5 4t36 8t24.5 21.5t9 44.5 q0 35 -15.5 67.5t-40 57t-56 39t-64.5 14.5q-43 0 -84 -21.5t-73 -56.5t-50 -79t-18 -87zM316 1398q-1 9 16 23q12 10 17 14.5t11 8.5l16 10q9 6 27 21q10 16 24.5 9t18.5 -18q10 -20 42 -70t67 -104.5t62.5 -101.5t29.5 -62q6 -20 -9 -30.5t-34 8.5q-20 18 -59 54t-81 77 t-79 78t-55 59q-13 15 -14 24z" />
<glyph unicode="&#xe9;" horiz-adv-x="940" d="M104 399q-2 96 18.5 194.5t68 177.5t124 129t185.5 50q123 0 210 -52t124 -175q8 -27 13 -53.5t7 -53.5q0 -27 -8 -41q-10 -2 -21.5 -3t-21.5 -1h-510q-8 0 -21 -4q-6 0 -8 -16t-2 -33v-16q2 -84 19.5 -160t56.5 -133t102.5 -91t157.5 -34q39 0 68.5 6t55.5 18.5t51.5 31 t55.5 40.5q2 2 17 2q14 0 14 -12q0 -10 -11 -26.5t-25.5 -33t-30 -30.5t-23.5 -21q-63 -53 -122.5 -76.5t-141.5 -23.5q-96 0 -170 34t-125 94t-78 140t-29 172zM283 651q0 -8 13 -11t30.5 -4t34 0t20.5 1q57 0 95 -1t93 3q25 2 45.5 4t36 8t24.5 21.5t9 44.5 q0 35 -15.5 67.5t-40 57t-56 39t-64.5 14.5q-43 0 -84 -21.5t-73 -56.5t-50 -79t-18 -87zM469 1112q10 27 32.5 75t47 100t48.5 99.5t38 71.5q10 16 19.5 20.5t27.5 -8.5q12 -10 18.5 -13t11.5 -7t14 -10l28 -19q16 -6 15 -21.5t-11 -23.5q-14 -16 -51 -62t-78 -96.5 t-77 -91.5t-46 -47q-18 -12 -33.5 -1t-3.5 34z" />
<glyph unicode="&#xea;" horiz-adv-x="940" d="M104 399q-2 96 18.5 194.5t68 177.5t124 129t185.5 50q123 0 210 -52t124 -175q8 -27 13 -53.5t7 -53.5q0 -27 -8 -41q-10 -2 -21.5 -3t-21.5 -1h-510q-8 0 -21 -4q-6 0 -8 -16t-2 -33v-16q2 -84 19.5 -160t56.5 -133t102.5 -91t157.5 -34q39 0 68.5 6t55.5 18.5t51.5 31 t55.5 40.5q2 2 17 2q14 0 14 -12q0 -10 -11 -26.5t-25.5 -33t-30 -30.5t-23.5 -21q-63 -53 -122.5 -76.5t-141.5 -23.5q-96 0 -170 34t-125 94t-78 140t-29 172zM283 651q0 -8 13 -11t30.5 -4t34 0t20.5 1q57 0 95 -1t93 3q25 2 45.5 4t36 8t24.5 21.5t9 44.5 q0 35 -15.5 67.5t-40 57t-56 39t-64.5 14.5q-43 0 -84 -21.5t-73 -56.5t-50 -79t-18 -87zM301 1116q0 6 13.5 35t35 67.5t47 84t49 84t43 67.5t27.5 35q18 -12 21 -16q59 -98 113.5 -185.5t82.5 -163.5q4 -12 4 -16q0 -18 -18 -14q-10 2 -35 31.5t-55.5 68.5t-61 75 t-51.5 50q-23 -16 -50.5 -52t-54 -73t-52 -64.5t-46.5 -27.5q-12 0 -12 14z" />
<glyph unicode="&#xeb;" horiz-adv-x="940" d="M104 399q-2 96 18.5 194.5t68 177.5t124 129t185.5 50q123 0 210 -52t124 -175q8 -27 13 -53.5t7 -53.5q0 -27 -8 -41q-10 -2 -21.5 -3t-21.5 -1h-510q-8 0 -21 -4q-6 0 -8 -16t-2 -33v-16q2 -84 19.5 -160t56.5 -133t102.5 -91t157.5 -34q39 0 68.5 6t55.5 18.5t51.5 31 t55.5 40.5q2 2 17 2q14 0 14 -12q0 -10 -11 -26.5t-25.5 -33t-30 -30.5t-23.5 -21q-63 -53 -122.5 -76.5t-141.5 -23.5q-96 0 -170 34t-125 94t-78 140t-29 172zM174 1231q0 47 35 78.5t82 31.5q45 0 75.5 -34.5t30.5 -77.5q0 -47 -33.5 -76t-78.5 -29t-78 30t-33 77z M283 651q0 -8 13 -11t30.5 -4t34 0t20.5 1q57 0 95 -1t93 3q25 2 45.5 4t36 8t24.5 21.5t9 44.5q0 35 -15.5 67.5t-40 57t-56 39t-64.5 14.5q-43 0 -84 -21.5t-73 -56.5t-50 -79t-18 -87zM598 1233q0 47 30.5 77.5t80.5 30.5q47 0 77.5 -29.5t30.5 -76.5q0 -51 -33.5 -82 t-83.5 -31q-6 0 -8 2q-43 4 -68.5 36t-25.5 73z" />
<glyph unicode="&#xec;" horiz-adv-x="641" d="M76 14q0 6 4 11l8 8q18 14 42 17t46.5 6t39.5 14.5t24 44.5q4 20 4 28v31q2 66 1 128.5t1 127.5q2 49 5 97t3 98q0 25 -3 59.5t-20 54.5q-10 12 -28.5 20.5t-35.5 15.5t-30.5 14.5t-13.5 17.5t12 18.5t29.5 15.5t34 12t24.5 7q14 4 41 18.5t54.5 30t50 27.5t30.5 12 q12 0 13 -10q0 -31 -1 -60.5t-3 -60.5q-2 -61 -3.5 -123.5t-1.5 -124.5q0 -76 1.5 -150.5t3.5 -150.5q0 -35 -1 -70.5t3 -70.5q4 -43 27.5 -57.5t51 -19.5t50 -10t22.5 -30q0 -23 -21.5 -24.5t-35.5 -1.5q-37 0 -73 5t-71 5q-53 0 -108 -5t-109 -5h-22q-16 0 -30.5 3.5 t-14.5 26.5zM122 1346.5q-1 9.5 15 23.5q12 10 17.5 14.5t11.5 8.5l15 10q9 6 28 20q10 16 24.5 9t18.5 -17q10 -20 42 -70.5t66.5 -104.5t62.5 -101t30 -62q6 -20 -9.5 -30.5t-33.5 8.5q-20 18 -59.5 54t-81.5 77t-78.5 77.5t-55.5 59.5q-12 14 -13 23.5z" />
<glyph unicode="&#xed;" horiz-adv-x="641" d="M76 14q0 6 4 11l8 8q18 14 42 17t46.5 6t39.5 14.5t24 44.5q4 20 4 28v31q2 66 1 128.5t1 127.5q2 49 5 97t3 98q0 25 -3 59.5t-20 54.5q-10 12 -28.5 20.5t-35.5 15.5t-30.5 14.5t-13.5 17.5t12 18.5t29.5 15.5t34 12t24.5 7q14 4 41 18.5t54.5 30t50 27.5t30.5 12 q12 0 13 -10q0 -31 -1 -60.5t-3 -60.5q-2 -61 -3.5 -123.5t-1.5 -124.5q0 -76 1.5 -150.5t3.5 -150.5q0 -35 -1 -70.5t3 -70.5q4 -43 27.5 -57.5t51 -19.5t50 -10t22.5 -30q0 -23 -21.5 -24.5t-35.5 -1.5q-37 0 -73 5t-71 5q-53 0 -108 -5t-109 -5h-22q-16 0 -30.5 3.5 t-14.5 26.5zM246 1073q10 27 32.5 75t47 100t48 99.5t38.5 71.5q10 16 19 20.5t28 -7.5q12 -10 18 -13.5t11.5 -7.5t14.5 -10l27 -19q16 -6 15.5 -21t-10.5 -24q-14 -16 -51.5 -62t-78 -96.5t-76.5 -91t-46 -47.5q-18 -12 -33.5 -1t-3.5 34z" />
<glyph unicode="&#xee;" horiz-adv-x="641" d="M76 14q0 6 4 11l8 8q18 14 42 17t46.5 6t39.5 14.5t24 44.5q4 20 4 28v31q2 66 1 128.5t1 127.5q2 49 5 97t3 98q0 25 -3 59.5t-20 54.5q-10 12 -28.5 20.5t-35.5 15.5t-30.5 14.5t-13.5 17.5t12 18.5t29.5 15.5t34 12t24.5 7q14 4 41 18.5t54.5 30t50 27.5t30.5 12 q12 0 13 -10q0 -31 -1 -60.5t-3 -60.5q-2 -61 -3.5 -123.5t-1.5 -124.5q0 -76 1.5 -150.5t3.5 -150.5q0 -35 -1 -70.5t3 -70.5q4 -43 27.5 -57.5t51 -19.5t50 -10t22.5 -30q0 -23 -21.5 -24.5t-35.5 -1.5q-37 0 -73 5t-71 5q-53 0 -108 -5t-109 -5h-22q-16 0 -30.5 3.5 t-14.5 26.5zM109 1036q0 6 13 35t34.5 68t47 84t49 84t43 67.5t28.5 34.5q18 -12 20 -16q59 -98 113.5 -185.5t83.5 -163.5q4 -12 4 -16q0 -18 -19 -14q-10 2 -34.5 31.5t-55 68.5t-61.5 75t-51 50q-23 -16 -50.5 -52t-54 -73t-52.5 -64.5t-46 -27.5q-12 0 -12 14z" />
<glyph unicode="&#xef;" horiz-adv-x="641" d="M-2 1174q0 47 35 78.5t82 31.5q45 0 75.5 -35t30.5 -78q0 -47 -33.5 -75.5t-78.5 -28.5t-78 30t-33 77zM72 14q0 6 4 11l8 8q18 14 42 17t46.5 6t39.5 14.5t24 44.5q4 20 4 28v31q2 66 1 128.5t1 127.5q2 49 5 97t3 98q0 25 -3 59.5t-20 54.5q-10 12 -28.5 20.5t-36 15.5 t-30.5 14.5t-13 17.5t12 18.5t29.5 15.5t34 12t24.5 7q14 4 41 18.5t54.5 30t50 27.5t30.5 12q12 0 13 -10q0 -31 -1 -60.5t-4 -60.5q-2 -61 -3 -123.5t-1 -124.5q0 -76 1 -150.5t3 -150.5q0 -35 -1 -70.5t4 -70.5q4 -43 27.5 -57.5t51 -19.5t50 -10t22.5 -30 q0 -23 -21.5 -24.5t-35.5 -1.5q-37 0 -73 5t-71 5q-53 0 -108 -5t-109 -5h-22q-16 0 -30.5 3.5t-14.5 26.5zM422 1176q0 47 30.5 77.5t79.5 30.5q47 0 78 -29.5t31 -76.5q0 -51 -34 -82t-83 -31q-6 0 -8 2q-43 4 -68.5 36t-25.5 73z" />
<glyph unicode="&#xf0;" horiz-adv-x="1196" d="M102 444q0 104 36 197.5t100.5 162t153.5 109.5t196 41q150 0 268 -75q-25 123 -75 233.5t-132 208.5l-106 -96q-2 -2 -17 -2q-10 0 -20 12t-10 22q0 4 2 11.5t4 11.5l86 109q-29 37 -69 68.5t-75.5 57t-60.5 45t-25 33.5q0 16 12.5 24.5t26.5 12.5q20 -6 52 -23.5 t68 -42t73 -51t69 -51.5l89 94q4 6 9 12.5t11 6.5q18 0 29 -10q10 -16 25.5 -28.5t15.5 -29.5q0 -8 -12.5 -21t-29 -28.5t-34 -31t-27.5 -27.5q94 -84 161 -187.5t107.5 -218t60 -237.5t19.5 -248q0 -102 -34.5 -201.5t-98 -176.5t-153.5 -124t-201 -47q-109 0 -199 35 t-155.5 98.5t-102.5 153t-37 198.5zM289 487q0 -70 16.5 -149.5t53 -147t97 -112.5t146.5 -45q78 0 133.5 35.5t90 93t50 126t15.5 134.5v10q0 68 -13.5 146.5t-48 146.5t-94 114t-151.5 46q-80 0 -135.5 -37t-91 -95.5t-52 -128t-16.5 -137.5z" />
<glyph unicode="&#xf1;" horiz-adv-x="1200" d="M76 14q0 12 14 19.5t34.5 12.5t40 12.5t30.5 19.5q16 23 21 62.5t5 68.5v422q0 49 -8 84q-4 23 -21.5 35t-37 19t-35 12t-15.5 18v4q8 14 23 24q8 6 44 29t78 46.5t75.5 43t37.5 19.5q8 0 15.5 -10.5t7.5 -16.5q0 -8 -2 -16.5t-2 -16.5v-110l4 -2q6 2 16 12 q70 59 141.5 101t166.5 42q82 0 136 -26.5t87 -72.5t45 -110.5t12 -138.5q0 -41 -2 -80t-2 -80v-299q0 -70 41 -86t100 -16q10 0 13.5 -9.5t3.5 -19.5q0 -8 -3 -16t-18 -8q-29 0 -56.5 3t-55.5 3h-154q-16 0 -32.5 -1t-32.5 -3t-33 -3t-33 -1q-12 0 -35.5 3t-23.5 21 q0 20 16 27.5t39.5 10.5t47.5 8t38 24q16 20 18 55t2 60q2 45 2 88v88v176q0 53 -5 104t-24.5 91t-58.5 64.5t-104 24.5q-47 0 -85 -13t-79 -36q-18 -10 -46 -26.5t-38 -36.5q-4 -12 -7 -38t-5 -58.5t-2 -67.5v-66v-333q0 -41 18 -68q23 -31 52.5 -35t58.5 -4q16 0 33 -6 q12 -4 12 -23q0 -16 -8 -24q-16 -6 -21.5 -7t-23.5 -1q-45 0 -88 5t-86 5q-53 0 -103.5 -5t-103.5 -5q-16 0 -27.5 5t-11.5 23zM268 1159q8 41 24.5 80t43 68.5t62.5 48t83 18.5q41 0 80 -13t76 -30.5t71.5 -31t69.5 -13.5q47 0 74 32t39 73q4 16 31 16t26 -14 q0 -10 -1 -19.5t-3 -19.5q-6 -37 -26.5 -71t-49 -59.5t-64.5 -41t-75 -15.5q-35 0 -74 14.5t-77.5 31t-76.5 30.5t-71 14q-49 0 -70.5 -31.5t-40.5 -68.5q0 -12 -26 -12q-8 0 -16.5 4t-8.5 10z" />
<glyph unicode="&#xf2;" horiz-adv-x="1183" d="M102 442q0 104 36 196.5t100.5 161t153.5 109.5t196 41q154 0 275.5 -79.5t180.5 -223.5q16 -43 26.5 -88t10.5 -92q0 -104 -35.5 -197.5t-99 -163t-154 -110.5t-196.5 -41q-109 0 -200 35t-156.5 99.5t-101.5 153t-36 199.5zM289 483q0 -72 16.5 -151.5t53 -147 t97 -111.5t146.5 -44q82 0 137.5 36.5t89 95t48 129t14.5 138.5q0 57 -9.5 118.5t-30 119t-55 105.5t-85.5 81q-29 20 -64 24.5t-69 4.5q-78 0 -133.5 -38t-90.5 -96.5t-50 -129.5t-15 -134zM314 1342.5q-1 9.5 16 23.5q12 10 17 14t11 9l16 10q9 6 27 20q10 16 24.5 9 t18.5 -17q10 -20 42 -70.5t67 -104.5t62.5 -101.5t29.5 -61.5q6 -20 -9 -30.5t-34 8.5q-20 18 -59 54t-81 77t-79 77.5t-55 59.5q-13 14 -14 23.5z" />
<glyph unicode="&#xf3;" horiz-adv-x="1183" d="M102 442q0 104 36 196.5t100.5 161t153.5 109.5t196 41q154 0 275.5 -79.5t180.5 -223.5q16 -43 26.5 -88t10.5 -92q0 -104 -35.5 -197.5t-99 -163t-154 -110.5t-196.5 -41q-109 0 -200 35t-156.5 99.5t-101.5 153t-36 199.5zM289 483q0 -72 16.5 -151.5t53 -147 t97 -111.5t146.5 -44q82 0 137.5 36.5t89 95t48 129t14.5 138.5q0 57 -9.5 118.5t-30 119t-55 105.5t-85.5 81q-29 20 -64 24.5t-69 4.5q-78 0 -133.5 -38t-90.5 -96.5t-50 -129.5t-15 -134zM522 1096q10 27 33 75t47.5 100t48 99t37.5 72q10 16 19.5 20t27.5 -8 q12 -10 18.5 -13t11.5 -7t14 -11l28 -18q16 -6 15 -21.5t-11 -23.5q-14 -16 -51 -62.5t-78 -96.5t-77 -91t-46 -47q-18 -12 -33.5 -1t-3.5 34z" />
<glyph unicode="&#xf4;" horiz-adv-x="1183" d="M102 442q0 104 36 196.5t100.5 161t153.5 109.5t196 41q154 0 275.5 -79.5t180.5 -223.5q16 -43 26.5 -88t10.5 -92q0 -104 -35.5 -197.5t-99 -163t-154 -110.5t-196.5 -41q-109 0 -200 35t-156.5 99.5t-101.5 153t-36 199.5zM289 483q0 -72 16.5 -151.5t53 -147 t97 -111.5t146.5 -44q82 0 137.5 36.5t89 95t48 129t14.5 138.5q0 57 -9.5 118.5t-30 119t-55 105.5t-85.5 81q-29 20 -64 24.5t-69 4.5q-78 0 -133.5 -38t-90.5 -96.5t-50 -129.5t-15 -134zM344 1120q0 6 13.5 35t35 68t47 84t49 84t43 67.5t27.5 34.5q18 -12 21 -16 q59 -98 113.5 -185.5t82.5 -163.5q4 -12 4 -16q0 -18 -18 -14q-10 2 -35 31.5t-55.5 68.5t-61 75t-51.5 50q-23 -16 -50.5 -52t-54 -73t-52 -64.5t-46.5 -27.5q-12 0 -12 14z" />
<glyph unicode="&#xf5;" horiz-adv-x="1183" d="M102 442q0 104 36 196.5t100.5 161t153.5 109.5t196 41q154 0 275.5 -79.5t180.5 -223.5q16 -43 26.5 -88t10.5 -92q0 -104 -35.5 -197.5t-99 -163t-154 -110.5t-196.5 -41q-109 0 -200 35t-156.5 99.5t-101.5 153t-36 199.5zM240 1159q8 41 24.5 80t43 68.5t62.5 48 t83 18.5q41 0 79.5 -13t75.5 -30.5t72 -31t70 -13.5q47 0 73.5 32t38.5 73q4 16 31 16t27 -14q0 -10 -1 -19.5t-4 -19.5q-6 -37 -26.5 -71t-49 -59.5t-64.5 -41t-75 -15.5q-35 0 -73.5 14.5t-77.5 31t-77 30.5t-71 14q-49 0 -70.5 -31.5t-39.5 -68.5q0 -12 -27 -12 q-8 0 -16 4t-8 10zM289 483q0 -72 16.5 -151.5t53 -147t97 -111.5t146.5 -44q82 0 137.5 36.5t89 95t48 129t14.5 138.5q0 57 -9.5 118.5t-30 119t-55 105.5t-85.5 81q-29 20 -64 24.5t-69 4.5q-78 0 -133.5 -38t-90.5 -96.5t-50 -129.5t-15 -134z" />
<glyph unicode="&#xf6;" horiz-adv-x="1183" d="M102 442q0 104 36 196.5t100.5 161t153.5 109.5t196 41q154 0 275.5 -79.5t180.5 -223.5q16 -43 26.5 -88t10.5 -92q0 -104 -35.5 -197.5t-99 -163t-154 -110.5t-196.5 -41q-109 0 -200 35t-156.5 99.5t-101.5 153t-36 199.5zM254 1229q0 47 35 78.5t82 31.5 q45 0 75.5 -34.5t30.5 -77.5q0 -47 -33.5 -76t-78.5 -29t-78 30t-33 77zM289 483q0 -72 16.5 -151.5t53 -147t97 -111.5t146.5 -44q82 0 137.5 36.5t89 95t48 129t14.5 138.5q0 57 -9.5 118.5t-30 119t-55 105.5t-85.5 81q-29 20 -64 24.5t-69 4.5q-78 0 -133.5 -38 t-90.5 -96.5t-50 -129.5t-15 -134zM678 1231q0 47 30.5 77.5t79.5 30.5q47 0 78 -29.5t31 -76.5q0 -51 -34 -82t-83 -31q-6 0 -8 2q-43 4 -68.5 36t-25.5 73z" />
<glyph unicode="&#xf7;" d="M74 504.5q-2 25.5 24 70.5q188 0 359.5 -2t296.5 -2h143q4 -20 4 -30v-29q0 -16 -1 -35.5t-11 -32.5q-23 2 -49 2h-56h-153q-92 0 -222 -1t-311 -1q-22 35 -24 60.5zM369 164q0 53 37.5 89t91.5 36q49 0 90 -37t41 -88q0 -53 -39 -96t-94 -43q-27 0 -50.5 12t-40 31.5 t-26.5 44t-10 51.5zM371 879q0 47 36.5 86t84.5 39q53 0 95 -39t42 -93q0 -55 -40 -94t-95 -39q-8 0 -11 2q-23 2 -43 15.5t-35.5 33t-24.5 43t-9 46.5z" />
<glyph unicode="&#xf8;" horiz-adv-x="1183" d="M102 442q0 104 36 196.5t100.5 161t153.5 109.5t196 41q80 0 147 -20q18 53 31.5 88t34.5 94q41 12 94 2q-14 -49 -20.5 -67.5t-10.5 -29.5t-12 -28.5t-27 -66.5q-4 -6 -5 -12.5t-5 -12.5q160 -82 229 -250q16 -43 26.5 -88t10.5 -92q0 -104 -35.5 -197.5t-99 -163 t-154 -110.5t-196.5 -41q-35 0 -65.5 4t-61.5 10q-18 -53 -35.5 -104t-34.5 -105q-10 0 -25.5 -2t-66.5 2q23 61 42.5 119t41.5 113q-135 53 -212 168.5t-77 281.5zM289 483q0 -49 7 -103t24.5 -107.5t43 -101.5t62.5 -83q72 197 141.5 380t141.5 384q-29 20 -63 24.5 t-68 4.5q-78 0 -133.5 -38t-90.5 -96.5t-50 -129.5t-15 -134zM494 39q25 -10 51 -12t57 -2q82 0 137.5 37.5t89 96t48 130t14.5 139.5q0 47 -6 96t-19.5 97.5t-35 92.5t-52.5 81q-72 -193 -144 -378t-140 -378z" />
<glyph unicode="&#xf9;" horiz-adv-x="1161" d="M57 879q0 12 15 20q6 2 24.5 4t38.5 2q23 0 43.5 1t30.5 1q35 4 71.5 8.5t71.5 4.5q16 0 18.5 -24t2.5 -34v-327q0 -61 -1 -123t-1 -123q0 -100 37.5 -156.5t142.5 -56.5q43 0 75.5 7t59.5 23.5t50.5 41t49.5 59.5q2 20 3.5 41.5t2.5 51.5t1 71v104v203q0 29 -2.5 57.5 t-8.5 57.5q-4 18 -23.5 28t-43 14.5t-44 7.5t-26.5 7q-10 0 -24.5 5t-14.5 19q0 10 19 21q4 2 43 5t86 7t89 7.5t52 3.5q41 0 52 -11.5t11 -54.5q0 -88 -2 -176l-4 -176q0 -86 -1 -172t-1 -172q0 -27 13.5 -45.5t42.5 -18.5q47 0 81 8q10 2 22.5 0t12.5 -20q0 -10 -12 -19.5 t-20 -13.5q-4 -2 -34 -11t-66 -20.5t-68.5 -20.5t-40.5 -11q-4 0 -14.5 -3.5t-24 -6.5t-26.5 -5t-19 0t-8.5 15.5t-2.5 29.5t1 31.5t1 22.5v34q0 27 -8 19l-65 -58q-33 -29 -69 -52t-76 -38.5t-85 -15.5h-39q-76 0 -123 28.5t-73.5 76t-36.5 107.5t-10 126q0 111 2 220.5 t2 219.5q0 53 -13.5 80t-74.5 27q-8 4 -19.5 6t-20.5 4t-15.5 8.5t-6.5 18.5zM304 1404q-1 9 15 23q12 10 17.5 14.5t11.5 8.5l16 10q9 6 27 21q10 16 24.5 9t18.5 -17q10 -20 42 -70.5t67 -105t62.5 -101.5t29.5 -61q6 -20 -9.5 -30.5t-33.5 7.5q-20 18 -59 54t-81 77 t-79 78t-56 59q-12 15 -13 24z" />
<glyph unicode="&#xfa;" horiz-adv-x="1161" d="M57 879q0 12 15 20q6 2 24.5 4t38.5 2q23 0 43.5 1t30.5 1q35 4 71.5 8.5t71.5 4.5q16 0 18.5 -24t2.5 -34v-327q0 -61 -1 -123t-1 -123q0 -100 37.5 -156.5t142.5 -56.5q43 0 75.5 7t59.5 23.5t50.5 41t49.5 59.5q2 20 3.5 41.5t2.5 51.5t1 71v104v203q0 29 -2.5 57.5 t-8.5 57.5q-4 18 -23.5 28t-43 14.5t-44 7.5t-26.5 7q-10 0 -24.5 5t-14.5 19q0 10 19 21q4 2 43 5t86 7t89 7.5t52 3.5q41 0 52 -11.5t11 -54.5q0 -88 -2 -176l-4 -176q0 -86 -1 -172t-1 -172q0 -27 13.5 -45.5t42.5 -18.5q47 0 81 8q10 2 22.5 0t12.5 -20q0 -10 -12 -19.5 t-20 -13.5q-4 -2 -34 -11t-66 -20.5t-68.5 -20.5t-40.5 -11q-4 0 -14.5 -3.5t-24 -6.5t-26.5 -5t-19 0t-8.5 15.5t-2.5 29.5t1 31.5t1 22.5v34q0 27 -8 19l-65 -58q-33 -29 -69 -52t-76 -38.5t-85 -15.5h-39q-76 0 -123 28.5t-73.5 76t-36.5 107.5t-10 126q0 111 2 220.5 t2 219.5q0 53 -13.5 80t-74.5 27q-8 4 -19.5 6t-20.5 4t-15.5 8.5t-6.5 18.5zM530 1085q10 27 33 75t47.5 100.5t48 99.5t37.5 72q10 16 19.5 20t27.5 -8q12 -10 18.5 -13.5t11.5 -7.5t14 -10l28 -18q16 -6 15 -21.5t-11 -23.5q-14 -16 -51 -62.5t-78 -96.5t-76.5 -91 t-46.5 -47q-18 -12 -33.5 -1.5t-3.5 33.5z" />
<glyph unicode="&#xfb;" horiz-adv-x="1161" d="M57 879q0 12 15 20q6 2 24.5 4t38.5 2q23 0 43.5 1t30.5 1q35 4 71.5 8.5t71.5 4.5q16 0 18.5 -24t2.5 -34v-327q0 -61 -1 -123t-1 -123q0 -100 37.5 -156.5t142.5 -56.5q43 0 75.5 7t59.5 23.5t50.5 41t49.5 59.5q2 20 3.5 41.5t2.5 51.5t1 71v104v203q0 29 -2.5 57.5 t-8.5 57.5q-4 18 -23.5 28t-43 14.5t-44 7.5t-26.5 7q-10 0 -24.5 5t-14.5 19q0 10 19 21q4 2 43 5t86 7t89 7.5t52 3.5q41 0 52 -11.5t11 -54.5q0 -88 -2 -176l-4 -176q0 -86 -1 -172t-1 -172q0 -27 13.5 -45.5t42.5 -18.5q47 0 81 8q10 2 22.5 0t12.5 -20q0 -10 -12 -19.5 t-20 -13.5q-4 -2 -34 -11t-66 -20.5t-68.5 -20.5t-40.5 -11q-4 0 -14.5 -3.5t-24 -6.5t-26.5 -5t-19 0t-8.5 15.5t-2.5 29.5t1 31.5t1 22.5v34q0 27 -8 19l-65 -58q-33 -29 -69 -52t-76 -38.5t-85 -15.5h-39q-76 0 -123 28.5t-73.5 76t-36.5 107.5t-10 126q0 111 2 220.5 t2 219.5q0 53 -13.5 80t-74.5 27q-8 4 -19.5 6t-20.5 4t-15.5 8.5t-6.5 18.5zM342 1124q0 6 13.5 35t35 68t47 84t49 84t43 67.5t27.5 34.5q18 -12 21 -16q59 -98 113 -185.5t83 -162.5q4 -12 4 -17q0 -18 -18 -14q-10 2 -35 31.5t-55.5 68.5t-61 75t-51.5 50 q-23 -16 -50.5 -52t-54 -73t-52 -64.5t-46.5 -27.5q-12 0 -12 14z" />
<glyph unicode="&#xfc;" horiz-adv-x="1161" d="M57 879q0 12 15 20q6 2 24.5 4t38.5 2q23 0 43.5 1t30.5 1q35 4 71.5 8.5t71.5 4.5q16 0 18.5 -24t2.5 -34v-327q0 -61 -1 -123t-1 -123q0 -100 37.5 -156.5t142.5 -56.5q43 0 75.5 7t59.5 23.5t50.5 41t49.5 59.5q2 20 3.5 41.5t2.5 51.5t1 71v104v203q0 29 -2.5 57.5 t-8.5 57.5q-4 18 -23.5 28t-43 14.5t-44 7.5t-26.5 7q-10 0 -24.5 5t-14.5 19q0 10 19 21q4 2 43 5t86 7t89 7.5t52 3.5q41 0 52 -11.5t11 -54.5q0 -88 -2 -176l-4 -176q0 -86 -1 -172t-1 -172q0 -27 13.5 -45.5t42.5 -18.5q47 0 81 8q10 2 22.5 0t12.5 -20q0 -10 -12 -19.5 t-20 -13.5q-4 -2 -34 -11t-66 -20.5t-68.5 -20.5t-40.5 -11q-4 0 -14.5 -3.5t-24 -6.5t-26.5 -5t-19 0t-8.5 15.5t-2.5 29.5t1 31.5t1 22.5v34q0 27 -8 19l-65 -58q-33 -29 -69 -52t-76 -38.5t-85 -15.5h-39q-76 0 -123 28.5t-73.5 76t-36.5 107.5t-10 126q0 111 2 220.5 t2 219.5q0 53 -13.5 80t-74.5 27q-8 4 -19.5 6t-20.5 4t-15.5 8.5t-6.5 18.5zM238 1264q0 47 34.5 78.5t81.5 31.5q45 0 76 -34.5t31 -77.5q0 -47 -34 -76t-79 -29t-77.5 30t-32.5 77zM662 1266q0 47 30.5 77.5t79.5 30.5q47 0 78 -29.5t31 -76.5q0 -51 -34 -82t-83 -31 q-6 0 -8 2q-43 4 -68.5 36t-25.5 73z" />
<glyph unicode="&#xfd;" horiz-adv-x="1099" d="M20 887q0 33 39 33q49 0 98.5 -5.5t98.5 -5.5q51 0 102.5 4.5t102.5 1.5h31q14 -8 14 -24q0 -23 -15.5 -28t-31.5 -5q-14 0 -31.5 -2t-34 -8t-28 -17.5t-11.5 -29.5q0 -14 13.5 -55t33 -97.5t44 -122t47 -125t41 -107.5t26.5 -71q4 -8 6 -15t8 -11q12 6 19 24 q10 25 31.5 70t48 101.5t53.5 116.5t49.5 114.5t36.5 96.5t14 62q0 37 -22.5 50.5t-49 19.5t-49 11t-22.5 28q0 16 7 20t20 4q37 0 72.5 -1t70.5 -1q41 0 81 2.5t81 2.5q20 0 42.5 -1.5t22.5 -29.5q0 -25 -25.5 -29t-54.5 -20q-25 -14 -40 -42t-25 -53q-31 -68 -63.5 -135 t-63.5 -135q-74 -160 -144.5 -314.5t-140.5 -314.5q-43 -104 -93 -214.5t-105 -215.5q-6 -10 -21.5 -9t-31 9t-24.5 20.5t-5 22.5q57 123 116.5 254t114.5 254q4 20 -7 49t-17 47q-66 184 -130.5 365.5t-146.5 355.5q-14 31 -40 46.5t-50.5 22.5t-43 13.5t-18.5 22.5z M606 1116q10 27 33 75t47.5 100t48 99.5t37.5 71.5q10 16 19.5 20.5t27.5 -7.5q12 -10 18.5 -13.5t11.5 -7.5t14 -10l28 -19q16 -6 15 -21t-11 -24q-14 -16 -51 -62t-78 -96.5t-77 -91t-46 -47.5q-18 -12 -33.5 -1t-3.5 34z" />
<glyph unicode="&#xfe;" horiz-adv-x="1236" d="M76 -518q0 10 19.5 16t44 12.5t50 14.5t37.5 22q20 10 23.5 34t3.5 50v27q0 80 1 209t2 281.5t2 317.5t2 317.5t2 281.5t1 209v37v18q0 10 -2 21q-4 49 -25.5 68.5t-46 26.5t-44 12t-19.5 28q0 6 13.5 12t17.5 10q41 18 82 31.5t82 34.5q6 4 19 12t27.5 17.5t27 16.5 t18.5 7q12 0 15 -13.5t3 -21.5q0 -23 -4 -44t-4 -44v-53q0 -51 1 -127t1 -164v-123q0 -59 1 -107t2 -78t3 -32q2 0 3 -1t5 -1q10 0 17.5 5t15.5 9q25 16 56.5 32t65.5 28t67.5 20.5t62.5 8.5q90 0 166 -34t130 -92.5t84 -136t30 -165.5q0 -104 -36 -196.5t-99.5 -163.5 t-151.5 -113t-191 -44q-41 0 -67.5 4.5t-47 9.5t-41 9t-48.5 4q-25 0 -30 -21.5t-5 -46.5v-26q0 -74 2 -148.5t2 -148.5v-19q0 -12 2 -18q2 -10 3 -17.5t7 -15.5q10 -16 36 -22t54.5 -9.5t52 -4.5t29.5 -5q10 -10 10 -22q0 -23 -21.5 -28t-37.5 -5q-49 0 -99 6t-100 6 q-55 0 -109 -7t-110 -7q-27 0 -45 3t-18 36zM419 303q1 -55 5 -102t12 -64q12 -23 36 -39t51.5 -27.5t57 -17.5t52.5 -6q82 0 145.5 29.5t107.5 80t66.5 119t22.5 146.5t-26.5 147.5t-75 122.5t-115 84t-146.5 31q-18 0 -51 -4t-63.5 -13.5t-54 -25.5t-23.5 -41v-240 q0 -25 -1 -75t0 -105z" />
<glyph unicode="&#xff;" horiz-adv-x="1099" d="M20 887q0 33 39 33q49 0 98.5 -5.5t98.5 -5.5q51 0 102.5 4.5t102.5 1.5h31q14 -8 14 -24q0 -23 -15.5 -28t-31.5 -5q-14 0 -31.5 -2t-34 -8t-28 -17.5t-11.5 -29.5q0 -14 13.5 -55t33 -97.5t44 -122t47 -125t41 -107.5t26.5 -71q4 -8 6 -15t8 -11q12 6 19 24 q10 25 31.5 70t48 101.5t53.5 116.5t49.5 114.5t36.5 96.5t14 62q0 37 -22.5 50.5t-49 19.5t-49 11t-22.5 28q0 16 7 20t20 4q37 0 72.5 -1t70.5 -1q41 0 81 2.5t81 2.5q20 0 42.5 -1.5t22.5 -29.5q0 -25 -25.5 -29t-54.5 -20q-25 -14 -40 -42t-25 -53q-31 -68 -63.5 -135 t-63.5 -135q-74 -160 -144.5 -314.5t-140.5 -314.5q-43 -104 -93 -214.5t-105 -215.5q-6 -10 -21.5 -9t-31 9t-24.5 20.5t-5 22.5q57 123 116.5 254t114.5 254q4 20 -7 49t-17 47q-66 184 -130.5 365.5t-146.5 355.5q-14 31 -40 46.5t-50.5 22.5t-43 13.5t-18.5 22.5z M260 1264q0 47 35 78.5t82 31.5q45 0 75.5 -34.5t30.5 -77.5q0 -47 -33.5 -76t-78.5 -29t-78 30t-33 77zM684 1266q0 47 30.5 77.5t80.5 30.5q47 0 77.5 -29.5t30.5 -76.5q0 -51 -33.5 -82t-83.5 -31q-6 0 -8 2q-43 4 -68.5 36t-25.5 73z" />
<glyph unicode="&#x152;" horiz-adv-x="2252" d="M123 723q0 170 57.5 315.5t160.5 252t244.5 167t309.5 60.5q53 0 109.5 -7.5t118 -14.5t130 -13t146.5 -4q276 6 555 6h22q23 0 45.5 -4t26.5 -21q8 -41 8 -76q0 -18 -1 -43.5t-1 -62.5q0 -41 -5 -77t-21 -38q-20 0 -33 25.5t-25 60.5t-27.5 69t-44.5 50q-18 10 -53 17.5 t-78 11.5t-89 5t-87 1h-90q-47 0 -71.5 -19.5t-35 -50t-12.5 -68.5t-2 -73v-326v-24q0 -12 2 -19q8 -10 24.5 -14t37 -5t39 0t30.5 1q55 0 112.5 1t113.5 9q61 10 87.5 51t31.5 101q6 12 13 23t23 11q23 0 25 -20t2 -43q0 -43 -2 -86t-2 -86t2 -85t2 -85q0 -10 1 -25.5 t-1 -30t-9 -23.5t-22 -9q-14 0 -22 18.5t-13.5 42t-9.5 47t-10 33.5q-8 39 -42 58.5t-80 26.5t-96 6t-89 -1q-10 0 -26.5 -1t-35 -2t-36 -3t-25.5 -4q-12 -2 -16.5 -18.5t-6.5 -37t-1 -41t1 -28.5v-323q0 -23 1 -50.5t6.5 -55.5t16.5 -51.5t34 -35.5q16 -8 57 -13t87 -7 t89 -3.5t62 -1.5h63q27 0 59.5 2.5t62.5 5.5t55.5 9t41.5 16q29 18 53.5 57.5t46 78t41 68.5t35.5 30q25 0 28 -16.5t-5 -32.5q0 -2 -4 -20.5t-6 -22.5q-2 -6 -10.5 -42t-17.5 -76t-16 -73l-8 -33q-16 -25 -51 -24h-1005q-57 -23 -117.5 -35t-97.5 -12q-166 0 -306.5 58 t-240.5 162.5t-156.5 247t-56.5 312.5zM347 892q-1 -126 22 -243q20 -111 63 -223.5t113.5 -202.5t171 -145t233.5 -51q25 2 56.5 6t61.5 14t52.5 27.5t32.5 48.5q10 37 17.5 95t10.5 130t4 149.5t1 149.5q0 74 -1 137.5t-1 104.5v160q0 86 -2 223q-4 55 -50.5 92t-112 55.5 t-137 21.5t-124.5 -9q-154 -29 -242 -111t-128 -192.5t-41 -236.5z" />
<glyph unicode="&#x153;" horiz-adv-x="1755" d="M102 442q0 104 36 196.5t100.5 161t153.5 109.5t196 41q125 0 229.5 -53t173.5 -152q47 92 126 148.5t198 56.5q123 0 210 -52t124 -175q8 -27 13 -53.5t7 -53.5q0 -27 -8 -41q-10 -2 -21.5 -3t-21.5 -1h-510q-8 0 -21 -4q-16 -25 -13 -62.5t5 -68.5q6 -74 27.5 -137 t61.5 -111.5t100.5 -76t144.5 -27.5q39 0 68.5 6t55.5 18.5t51.5 31t56.5 40.5q2 2 16 2t14 -12q0 -10 -11 -26.5t-25.5 -33t-30 -30.5t-23.5 -21q-63 -53 -122.5 -76.5t-141.5 -23.5q-123 0 -207 51t-133 140q-66 -92 -164 -143.5t-221 -51.5q-109 0 -200 35t-156.5 99.5 t-101.5 153t-36 199.5zM289 483q0 -72 16.5 -151.5t53 -148t97 -113.5t146.5 -45q82 0 137.5 37.5t89 96t48 130t14.5 139.5q0 57 -9.5 118.5t-30 119t-55 105.5t-85.5 81q-29 20 -64 24.5t-69 4.5q-78 0 -133.5 -38t-90.5 -96.5t-50 -129.5t-15 -134zM1098 651q0 -8 13 -11 t30.5 -4t34 0t20.5 1q57 0 95 -1t93 3q25 2 45.5 4t36 8t24.5 21.5t9 44.5q0 35 -15.5 67.5t-40 57t-56 39t-64.5 14.5q-43 0 -84 -21.5t-72.5 -56.5t-50 -79t-18.5 -87z" />
<glyph unicode="&#x178;" horiz-adv-x="1603" d="M20 1458q0 20 14.5 22.5t31.5 2.5q57 0 112 -8.5t113 -8.5q78 0 156.5 7.5t158.5 7.5q10 0 25.5 -10.5t15.5 -20.5q0 -31 -28.5 -36t-62.5 -6t-62.5 -6t-28.5 -34q0 -23 19.5 -57.5t45 -72.5t53 -74t46.5 -60q49 -72 98 -142.5t102 -136.5q6 -8 11.5 -15t15.5 -11 q6 2 13.5 8t11.5 10q12 12 43.5 54t73.5 98.5t87 121t83 120t62.5 94t24.5 47.5q0 35 -28.5 44t-62.5 11t-62.5 7t-28.5 34q0 25 11.5 28t31.5 3q47 0 94 -6.5t95 -6.5q53 0 105 7.5t106 7.5q29 0 52 -10.5t11 -36.5q-8 -16 -28.5 -21.5t-45 -9.5t-51.5 -14.5t-49 -36.5 q-76 -88 -146.5 -180.5t-142.5 -184.5q-33 -41 -72.5 -87t-75.5 -94t-59.5 -97.5t-23.5 -94.5v-407q0 -55 16.5 -85t41 -42t54 -14.5t57 -3.5t48 -6t28.5 -25q0 -18 -8 -32.5t-30 -14.5q-80 0 -161 7t-161 7q-74 0 -146.5 -7t-146.5 -7q-6 0 -14 2t-8 12q-10 31 12 42t58 16 t74 11.5t60 30.5q10 12 16.5 40t9.5 64t4 76.5t1 77.5v181q0 63 -2 106t-26 78q-111 160 -220.5 312.5t-220.5 312.5q-23 33 -57.5 47t-66 21t-54.5 14t-23 30zM539 1745q0 47 34.5 78.5t81.5 31.5q45 0 76 -34.5t31 -77.5q0 -47 -34 -76t-79 -29t-77.5 30t-32.5 77z M963 1747q0 47 30.5 77.5t79.5 30.5q47 0 78 -29.5t31 -76.5q0 -51 -34 -82t-83 -31q-6 0 -8 2q-43 4 -68.5 36t-25.5 73z" />
<glyph unicode="&#x2c6;" horiz-adv-x="864" d="M246 1069q0 6 13 35t34.5 67.5t47.5 83.5t49.5 84t43 68t27.5 35q18 -12 20 -17q59 -98 113.5 -185t83.5 -163q4 -12 4 -16q0 -18 -18 -14q-10 2 -35 31.5t-55.5 68.5t-61.5 74.5t-51 50.5q-23 -16 -50.5 -52t-54 -73t-52 -64.5t-46.5 -27.5q-12 0 -12 14z" />
<glyph unicode="&#x2dc;" horiz-adv-x="782" d="M49 1159q8 41 24.5 80t43 68.5t62.5 48t83 18.5q41 0 80 -13t76 -30.5t71.5 -31t69.5 -13.5q47 0 73.5 32t39.5 73q4 16 30 16q27 0 27 -14q0 -10 -1 -19.5t-3 -19.5q-6 -37 -26.5 -71t-49 -59.5t-64.5 -41t-75 -15.5q-35 0 -74 14.5t-78 31t-76.5 30.5t-70.5 14 q-49 0 -70.5 -31.5t-40.5 -68.5q0 -12 -26 -12q-8 0 -16.5 4t-8.5 10z" />
<glyph unicode="&#x2013;" horiz-adv-x="1200" d="M27 516q0 12 1 24.5t3 24.5q14 2 26 2h27h414q117 0 230.5 -1t225.5 -1h215l3.5 -14t1.5 -14v-27q0 -16 -1.5 -40t-11.5 -36q-31 4 -85 5t-101 1h-53q-154 0 -304.5 -2t-304.5 -2q-68 0 -142.5 2t-141.5 6q0 18 -1 36t-1 36z" />
<glyph unicode="&#x2014;" horiz-adv-x="1837" d="M27 553q0 12 1 24.5t3 24.5q14 2 26 2h27h643q147 0 310 -1t311 -1h458q2 -8 3 -14t1 -15v-26q0 -16 -1 -39t-11 -35q-20 2 -40.5 3t-43.5 1h-237q-104 0 -234.5 -1t-277.5 -1t-277.5 -1t-234.5 -1h-156q-68 0 -134.5 2t-133.5 6q0 18 -1 36t-1 36z" />
<glyph unicode="&#x2018;" horiz-adv-x="585" d="M150 1214q0 51 32.5 107.5t71.5 91.5q14 12 35.5 26.5t45 27t47.5 20.5t44 8q10 0 19.5 -12.5t9.5 -22.5q0 -12 -29 -25.5t-62.5 -35t-61.5 -52t-28 -75.5q0 -29 14.5 -45.5t34 -28.5t42 -22.5t38.5 -24.5q12 -12 14.5 -24.5t2.5 -28.5q0 -51 -31 -71.5t-78 -20.5 q-41 0 -71.5 19t-50 49t-29.5 66.5t-10 73.5z" />
<glyph unicode="&#x2019;" horiz-adv-x="585" d="M125 1038q25 18 55.5 38t58 43.5t47 51t19.5 62.5q0 37 -22.5 55.5t-50 31.5t-50 28.5t-22.5 46.5q0 47 29.5 75.5t76.5 28.5q37 0 68 -16.5t53.5 -42t34.5 -59t12 -68.5q0 -102 -60.5 -169t-142.5 -112q-16 -10 -33.5 -19t-37.5 -9q-25 0 -31 22q-4 4 -4 12z" />
<glyph unicode="&#x201a;" horiz-adv-x="606" d="M141 -285q10 20 39 39t58.5 39.5t53 48t23.5 70.5q0 45 -25.5 69.5t-55 43t-55 36t-25.5 48.5q0 63 35.5 87.5t95.5 24.5q37 0 66.5 -20.5t50 -52t30.5 -68.5t10 -70q0 -68 -28.5 -123t-75.5 -102q-12 -12 -33.5 -29.5t-44 -33t-45 -26.5t-41.5 -13q-18 8 -20.5 12z" />
<glyph unicode="&#x201c;" horiz-adv-x="999" d="M152 1196q0 51 15 91t42 72t61.5 58.5t73.5 52.5q10 8 28.5 19.5t30.5 11.5q6 0 9 -2q8 0 10 -8q10 -6 12 -27q-10 -10 -22.5 -18t-22.5 -16q-16 -12 -36.5 -29t-38 -37.5t-30 -42t-12.5 -43.5q0 -37 22.5 -55.5t50.5 -35t51.5 -35.5t23.5 -56q0 -51 -35 -71.5t-80 -20.5 q-39 0 -67.5 17t-48 45t-28.5 61.5t-9 68.5zM549 1206q0 43 17.5 83t46 74t63.5 61.5t69 48.5q14 8 32 18t34 10q10 0 12 -2q16 0 17 -20q0 -10 -6.5 -20.5t-12.5 -18.5q-25 -6 -51.5 -23.5t-48 -40t-34.5 -50.5t-13 -54q0 -35 22.5 -52.5t48 -31.5t48 -30.5t22.5 -49.5 q0 -104 -108 -104q-41 0 -71 18t-49.5 47t-28.5 64.5t-9 72.5z" />
<glyph unicode="&#x201d;" horiz-adv-x="999" d="M139 1032q0 8 27 25.5t58.5 44t58 59.5t26.5 72q0 37 -23.5 55.5t-51 32.5t-50 30.5t-22.5 47.5q0 51 29.5 76.5t78.5 25.5q39 0 69 -16.5t50.5 -42t31.5 -59t11 -68.5q0 -94 -58.5 -168t-137.5 -115q-10 -4 -29 -13t-29 -9q-2 0 -3 1t-3 1q-4 0 -7 -1t-7 -1 q-19 -1 -19 22zM545 1038q0 12 25.5 28.5t55 39t55.5 53.5t26 72q0 35 -22.5 53.5t-49.5 33.5t-49.5 32.5t-22.5 48.5q0 104 103 104q39 0 69.5 -16.5t52 -44t32.5 -61t11 -70.5q0 -43 -15 -85t-41.5 -78t-59.5 -64.5t-70 -49.5q-10 -6 -34.5 -18t-35.5 -12q-14 0 -22 11 t-8 23z" />
<glyph unicode="&#x201e;" horiz-adv-x="989" d="M137 -254q23 18 52.5 39.5t55 47.5t44 54.5t18.5 61.5q0 29 -14 45t-34.5 27.5t-43 21.5t-37.5 27q-12 14 -14 26.5t-2 28.5q0 43 34.5 67.5t73.5 24.5q82 0 121 -58.5t39 -131.5q0 -31 -6 -62t-23 -59q-27 -49 -71.5 -89t-91.5 -69q-10 -4 -32 -16.5t-32 -5.5 q-2 -2 -14 -2q-23 -1 -23 22zM545 -258q0 10 7 18.5t11 14.5q18 12 44 29.5t47.5 38t37 44t15.5 50.5q0 37 -22.5 57t-50.5 36.5t-50.5 35t-22.5 51.5q0 49 30 74.5t77 25.5q80 0 120.5 -59.5t40.5 -132.5q0 -61 -28.5 -114.5t-73.5 -94.5q-25 -23 -53.5 -45.5t-57.5 -36.5 l-20 -8q-10 -4 -21 -11q-10 0 -18 13q-12 2 -12 14z" />
<glyph unicode="&#x2022;" d="M172 743q0 68 25.5 126.5t69.5 101.5t102.5 68.5t126.5 25.5q66 0 123 -25.5t100 -69.5t67.5 -102.5t24.5 -124.5q0 -68 -25.5 -126t-68.5 -101t-101.5 -67.5t-126.5 -24.5q-66 0 -123 25.5t-100 68.5t-68.5 101t-25.5 124z" />
<glyph unicode="&#x2026;" horiz-adv-x="1720" d="M88 92q0 55 38 91t91 36q57 0 88 -39t31 -92t-35 -86t-88 -33t-89 34t-36 89zM711 92q0 55 37.5 91t91.5 36q57 0 87.5 -39t30.5 -92t-34.5 -86t-87.5 -33t-89 34t-36 89zM1350 92q0 55 37.5 91t91.5 36q57 0 87.5 -39t30.5 -92t-34.5 -86t-87.5 -33t-89 34t-36 89z" />
<glyph unicode="&#x2039;" horiz-adv-x="804" d="M184 498q2 6 17 20q68 63 137.5 121.5t134.5 122.5q2 4 18.5 18.5t34.5 30.5q23 20 49 43q12 4 17 4q16 0 16 -18q0 -16 -31.5 -63.5t-73.5 -101.5t-81 -104.5t-53 -70.5q14 -23 54 -72t82 -103.5t74.5 -101.5t32.5 -67q0 -12 -12 -13q-6 0 -38 23.5t-76 60.5t-94 81 t-94 83t-76 69t-38 38z" />
<glyph unicode="&#x203a;" horiz-adv-x="782" d="M182 842q0 16 15 18q12 -4 22 -12l21 -17q16 -12 29 -25l28 -28q41 -41 84 -78l86 -73q27 -23 52.5 -44.5t47.5 -45.5q6 -6 12.5 -13.5t12.5 -13.5l8 -12l-2 -11q-2 -2 -18 -14q-23 -16 -41.5 -33.5t-36.5 -33.5q-39 -35 -76 -69t-76 -69q-35 -29 -67.5 -62.5 t-67.5 -62.5h-4q-10 0 -17.5 3.5t-9.5 15.5q4 23 35 67.5t71 95t76.5 98.5t53.5 77q-16 31 -56 78t-80 96t-71 94t-31 74z" />
<glyph unicode="&#x20ac;" horiz-adv-x="1544" d="M16 555q0 12 1 24.5t3 24.5q6 0 12.5 1t22 2t47 2t91.5 1q-14 66 -15 160v31q0 18 2 28q-41 2 -79 3.5t-78 3.5q0 18 -1.5 34.5t-1.5 34.5q0 12 1.5 24.5t3.5 24.5q16 0 62 3.5t110 3.5q27 131 92 234t161.5 174t219.5 107.5t264 36.5q70 0 138.5 -8t137.5 -22 q16 -4 38 -11.5t44 -13.5q14 -12 24.5 1.5t23 33.5t31 39.5t48.5 19.5q14 0 18.5 -20.5t4.5 -48.5q0 -29 -3 -59.5t-3 -53.5q0 -53 -2 -106.5t-7 -106.5q-4 -18 -10 -24.5t-14 -6.5t-15.5 2t-13.5 2q-12 0 -20 18.5t-14.5 44.5t-13.5 53.5t-19 47.5q-66 72 -161 110t-196 38 q-117 0 -205 -38t-150.5 -102.5t-101 -152.5t-57.5 -188h29q186 4 388 2t394 -5q6 -29 6 -57q0 -16 -1 -36.5t-11 -33.5q-41 4 -83 2t-83 -2l-653 -2v-57q0 -41 2 -81t6 -81q66 0 136.5 -1t162.5 -1h516q2 -8 3 -14t1 -14v-27q0 -16 -1 -37.5t-11 -34.5q-20 2 -45 2h-70 q-43 0 -113.5 -1t-183.5 -1q-59 0 -149 -1t-221 -1q25 -94 67.5 -176t106 -142.5t148.5 -95t194 -34.5q49 0 102 11t103.5 32.5t94.5 52.5t77 72q10 14 23 38.5t27.5 49t27 43t22.5 18.5q23 0 32 -8t9 -31q0 -16 -5 -53t-13.5 -77t-18.5 -72.5t-20 -43.5q-35 -31 -92.5 -52 t-123 -35.5t-134 -20.5t-124.5 -6q-139 0 -256.5 40t-211 111.5t-161 168t-106.5 210.5q-53 2 -108.5 3t-96.5 3q0 18 -1 35t-1 35z" />
<glyph unicode="&#x2122;" horiz-adv-x="1853" d="M53 1370q-4 27 4 55q4 16 10.5 40t6.5 44q0 29 7 57.5t48 28.5q16 0 24.5 -17t28.5 -19q55 -4 132 -5.5t200 -1.5q37 4 75 1t73 6q10 2 16 9t11 15t12.5 14.5t17.5 6.5q29 0 38 -24t1 -40q-4 -10 -10.5 -28.5t-8.5 -41.5t-3 -45t-5 -40.5t-12 -30t-25 -11.5 q-31 0 -35 18.5t0 43.5q2 12 3.5 24.5t-3.5 20.5q-4 16 -44 20.5t-74 4.5q-10 0 -22.5 -1t-35.5 -1q-2 0 -2 -15v-65q0 -51 -1 -149.5t-1 -270.5v-29q0 -10 4 -31q6 -16 25.5 -22t38.5 -10q23 -4 41 -9.5t18 -29.5q0 -27 -11 -31t-34 -4q-41 0 -79 2t-79 2q-35 0 -70.5 -2 t-70.5 -2q-14 0 -28.5 4t-14.5 27q0 29 16.5 35t40.5 6q47 6 58.5 22.5t11.5 63.5l-2 508h-88q-27 0 -49.5 -3.5t-42.5 -21.5q-8 -8 -17 -26l-16 -34q-8 -17 -18.5 -31t-22.5 -14q-33 0 -37 27zM809 838q0 29 18.5 36t40.5 11q14 2 29.5 6t20.5 20q8 27 10 56 q12 117 21 233.5t9 233.5q0 45 -55 53q-8 0 -20.5 3t-24.5 9t-21.5 14.5t-9.5 18.5q0 27 18.5 31t31.5 4q20 0 32.5 -3t30.5 -3q29 0 50.5 3t49.5 3q16 0 22.5 -2t16.5 -17q12 -16 21.5 -38.5t19.5 -45.5q41 -109 87 -208t89 -218q57 117 106.5 235t102.5 236 q20 39 32.5 45.5t43.5 6.5q10 0 16.5 -1t12.5 -1l104 2q14 0 33.5 -6.5t15.5 -32.5q0 -16 -10 -24.5t-24.5 -11.5t-27.5 -4t-22 -1q-27 0 -32 -20.5t-5 -47.5l21 -465q0 -14 7 -33.5t42 -29.5q25 -6 47.5 -13.5t22.5 -33.5q0 -29 -17.5 -30t-40.5 -1q-29 0 -57.5 3t-56.5 3 q-31 0 -64 -3t-63 -3q-10 0 -31.5 4t-21.5 29q0 16 11 24t27 17q43 0 53.5 16t10.5 57q-4 82 -7 170t-7 207q-47 -98 -90.5 -194.5t-84.5 -200.5q-6 -12 -12 -31q-12 -31 -28.5 -62.5t-34.5 -31.5q-23 0 -33 20.5t-12 30.5l2 -2q-25 76 -49.5 134.5t-49 114.5t-52 117.5 t-58.5 141.5q2 -18 3 -59t2 -92.5t1 -106.5v-102v-99q0 -16 16.5 -21t32.5 -7q27 -4 44.5 -9.5t17.5 -33.5q0 -23 -17.5 -27t-34.5 -4q-39 4 -69 4q-29 0 -54.5 -1t-49 -2t-52.5 -1q-10 0 -28.5 4t-18.5 27z" />
<glyph unicode="&#xe000;" horiz-adv-x="925" d="M0 925h925v-925h-925v925z" />
<glyph unicode="&#xfb01;" horiz-adv-x="1331" d="M766 14q0 6 4 11l8 8q18 14 42 17t46.5 6t39.5 14.5t24 44.5q4 20 4 28v31q1 44 1 86q0 21 -0.5 42t-0.5 42q0 42 2 86q2 49 5 97t3 98q0 25 -3 59.5t-20 54.5q-10 12 -28.5 20.5t-35.5 15.5t-30.5 14.5t-13.5 17.5t12 18.5t29.5 15.5t34 12t24.5 7q14 4 41 18.5t54.5 30 t50 27.5t30.5 12q12 0 13 -10q0 -31 -1 -60.5t-3 -60.5q-2 -61 -3.5 -123.5t-1.5 -124.5q0 -76 1.5 -150.5t3.5 -150.5q0 -35 -1 -70q0 -7 -1 -15q0 -29 4 -56q4 -43 27.5 -57.5t51 -19.5t50 -10t22.5 -30q0 -23 -21.5 -24.5t-35.5 -1.5q-37 0 -73 5t-71 5q-53 0 -108 -5 t-109 -5h-22q-16 0 -30.5 3.5t-14.5 26.5zM901 1423q0 43 35 76t78 33q47 0 78.5 -32t31.5 -79q0 -45 -34.5 -76.5t-77.5 -31.5q-47 0 -79 31.5t-32 78.5zM47 4q0 29 24.5 35t55.5 13t55.5 28.5t24.5 81.5v594q0 27 -6 55q-49 6 -97 6q-16 0 -36.5 4t-20.5 27q0 8 1 19.5 t5 19.5q6 10 25.5 14t43 7t47.5 5t36 9q6 80 7 159.5t21 157.5q18 78 56.5 148.5t92.5 124t125 83.5q66 29 144 29h11q43 0 87 -6t78.5 -23.5t57 -46t24.5 -71.5q2 -8 2 -16q0 -16 -9 -31q-13 -23 -35.5 -36.5t-48 -15.5t-42.5 13q-12 8 -19 30.5t-26.5 44t-60.5 39 t-121 17.5q-43 0 -74 -27t-51.5 -69t-32.5 -95t-18 -107.5t-8.5 -103.5t-2.5 -84v-28q0 -25 1.5 -55.5t11.5 -41.5h229q27 0 39 -12q0 -10 1 -18.5t1 -18.5q0 -23 -10 -39q-10 -2 -22.5 -3t-24.5 -1h-127h-41q-18 0 -39 -2q-14 -14 -13 -45t1 -49q0 -141 -1 -279.5 t-1 -279.5q0 -45 14 -67.5t36.5 -34t53.5 -14.5t66 -9q8 -8 8 -23q0 -14 -10 -18l-3 -6q-14 -8 -38 -8q-39 0 -78 6t-78 6q-59 0 -118.5 -6t-119.5 -6q-10 0 -31.5 2t-21.5 18z" />
<glyph unicode="&#xfb02;" horiz-adv-x="1337" d="M762 6q0 27 12 30t39 11q35 10 65.5 23.5t44.5 50.5q6 16 8.5 40.5t2.5 43.5q0 276 2 543.5t2 543.5q0 31 -3 67t-26 60q-8 8 -23 17l-31 16q-15 8 -27.5 16.5t-12.5 18.5v8q0 4 4 6q31 8 76 23.5t88 33t72.5 31t29.5 15.5l13 -9q0 -29 1 -55.5t1 -54.5q0 -336 -1 -663.5 t-1 -663.5q0 -68 35.5 -85.5t91.5 -23.5q4 -4 9 -3t9 1q33 0 33 -31q0 -23 -21 -28q-2 -2 -10 -2h-8q-47 0 -95.5 5t-95.5 5q-59 0 -116.5 -6t-116.5 -6q-10 0 -30.5 3t-20.5 19zM47 4q0 29 24.5 35t55.5 13t55.5 28.5t24.5 81.5v594q0 27 -6 55q-49 6 -97 6q-16 0 -36.5 4 t-20.5 27q0 8 1 19.5t5 19.5q6 10 25.5 14t43 7t47.5 5t36 9q6 80 7 159.5t21 157.5q18 78 56.5 148.5t92.5 124t125 83.5q66 29 144 29h11q43 0 87 -6t78.5 -23.5t57 -46t24.5 -71.5q2 -8 2 -16q0 -16 -9 -31q-13 -23 -35.5 -36.5t-48 -15.5t-42.5 13q-12 8 -19 30.5 t-26.5 44t-60.5 39t-121 17.5q-43 0 -74 -27t-51.5 -69t-32.5 -95t-18 -107.5t-8.5 -103.5t-2.5 -84v-28q0 -25 1.5 -55.5t11.5 -41.5h229q27 0 39 -12q0 -10 1 -18.5t1 -18.5q0 -23 -10 -39q-10 -2 -22.5 -3t-24.5 -1h-127h-41q-18 0 -39 -2q-14 -14 -13 -45t1 -49 q0 -141 -1 -279.5t-1 -279.5q0 -45 14 -67.5t36.5 -34t53.5 -14.5t66 -9q8 -8 8 -23q0 -14 -10 -18l-3 -6q-14 -8 -38 -8q-39 0 -78 6t-78 6q-59 0 -118.5 -6t-119.5 -6q-10 0 -31.5 2t-21.5 18z" />
<glyph unicode="&#xfb03;" horiz-adv-x="2021" d="M1456 14q0 6 4 11l8 8q18 14 42 17t46.5 6t39.5 14.5t24 44.5q4 20 4 28v31q1 44 1 86q0 21 -0.5 42t-0.5 42q0 42 2 86q2 49 5 97t3 98q0 25 -3 59.5t-20 54.5q-10 12 -28.5 20.5t-35.5 15.5t-30.5 14.5t-13.5 17.5t12 18.5t29.5 15.5t34 12t24.5 7q14 4 41 18.5 t54.5 30t50 27.5t30.5 12q12 0 13 -10q0 -31 -1 -60.5t-3 -60.5q-2 -61 -3.5 -123.5t-1.5 -124.5q0 -76 1.5 -150.5t3.5 -150.5q0 -35 -1 -70q0 -7 -1 -15q0 -29 4 -56q4 -43 27.5 -57.5t51 -19.5t50 -10t22.5 -30q0 -23 -21.5 -24.5t-35.5 -1.5q-37 0 -73 5t-71 5 q-53 0 -108 -5t-109 -5h-22q-16 0 -30.5 3.5t-14.5 26.5zM1591 1423q0 43 35 76t78 33q47 0 78.5 -32t31.5 -79q0 -45 -34.5 -76.5t-77.5 -31.5q-47 0 -79 31.5t-32 78.5zM737 4q0 29 24.5 35t55.5 13t55.5 28.5t24.5 81.5v594q0 27 -6 55q-49 6 -97 6q-16 0 -36.5 4 t-20.5 27q0 8 1 19.5t5 19.5q6 10 25.5 14t43 7t47.5 5t36 9q6 80 7 159.5t21 157.5q18 78 56.5 148.5t92.5 124t125 83.5q66 29 144 29h11q43 0 87 -6t78.5 -23.5t57 -46t24.5 -71.5q2 -8 2 -16q0 -16 -9 -31q-13 -23 -35.5 -36.5t-48 -15.5t-42.5 13q-12 8 -19 30.5 t-26.5 44t-60.5 39t-121 17.5q-43 0 -74 -27t-51.5 -69t-32.5 -95t-18 -107.5t-8.5 -103.5t-2.5 -84v-28q0 -25 1.5 -55.5t11.5 -41.5h229q27 0 39 -12q0 -10 1 -18.5t1 -18.5q0 -23 -10 -39q-10 -2 -22.5 -3t-24.5 -1h-127h-41q-18 0 -39 -2q-14 -14 -13 -45t1 -49 q0 -141 -1 -279.5t-1 -279.5q0 -45 14 -67.5t36.5 -34t53.5 -14.5t66 -9q8 -8 8 -23q0 -14 -10 -18l-3 -6q-14 -8 -38 -8q-39 0 -78 6t-78 6q-59 0 -118.5 -6t-119.5 -6q-10 0 -31.5 2t-21.5 18zM47 4q0 29 24.5 35t55.5 13t55.5 28.5t24.5 81.5v594q0 27 -6 55q-49 6 -97 6 q-16 0 -36.5 4t-20.5 27q0 8 1 19.5t5 19.5q6 10 25.5 14t43 7t47.5 5t36 9q6 80 7 159.5t21 157.5q18 78 56.5 148.5t92.5 124t125 83.5q66 29 144 29h11q43 0 87 -6t78.5 -23.5t57 -46t24.5 -71.5q2 -8 2 -16q0 -16 -9 -31q-13 -23 -35.5 -36.5t-48 -15.5t-42.5 13 q-12 8 -19 30.5t-26.5 44t-60.5 39t-121 17.5q-43 0 -74 -27t-51.5 -69t-32.5 -95t-18 -107.5t-8.5 -103.5t-2.5 -84v-28q0 -25 1.5 -55.5t11.5 -41.5h229q27 0 39 -12q0 -10 1 -18.5t1 -18.5q0 -23 -10 -39q-10 -2 -22.5 -3t-24.5 -1h-127h-41q-18 0 -39 -2 q-14 -14 -13 -45t1 -49q0 -141 -1 -279.5t-1 -279.5q0 -45 14 -67.5t36.5 -34t53.5 -14.5t66 -9q8 -8 8 -23q0 -14 -10 -18l-3 -6q-14 -8 -38 -8q-39 0 -78 6t-78 6q-59 0 -118.5 -6t-119.5 -6q-10 0 -31.5 2t-21.5 18z" />
<glyph unicode="&#xfb04;" horiz-adv-x="2027" d="M1452 6q0 27 12 30t39 11q35 10 65.5 23.5t44.5 50.5q6 16 8.5 40.5t2.5 43.5q0 276 2 543.5t2 543.5q0 31 -3 67t-26 60q-8 8 -23 17l-31 16q-15 8 -27.5 16.5t-12.5 18.5v8q0 4 4 6q31 8 76 23.5t88 33t72.5 31t29.5 15.5l13 -9q0 -29 1 -55.5t1 -54.5 q0 -336 -1 -663.5t-1 -663.5q0 -68 35.5 -85.5t91.5 -23.5q4 -4 9 -3t9 1q33 0 33 -31q0 -23 -21 -28q-2 -2 -10 -2h-8q-47 0 -95.5 5t-95.5 5q-59 0 -116.5 -6t-116.5 -6q-10 0 -30.5 3t-20.5 19zM737 4q0 29 24.5 35t55.5 13t55.5 28.5t24.5 81.5v594q0 27 -6 55 q-49 6 -97 6q-16 0 -36.5 4t-20.5 27q0 8 1 19.5t5 19.5q6 10 25.5 14t43 7t47.5 5t36 9q6 80 7 159.5t21 157.5q18 78 56.5 148.5t92.5 124t125 83.5q66 29 144 29h11q43 0 87 -6t78.5 -23.5t57 -46t24.5 -71.5q2 -8 2 -16q0 -16 -9 -31q-13 -23 -35.5 -36.5t-48 -15.5 t-42.5 13q-12 8 -19 30.5t-26.5 44t-60.5 39t-121 17.5q-43 0 -74 -27t-51.5 -69t-32.5 -95t-18 -107.5t-8.5 -103.5t-2.5 -84v-28q0 -25 1.5 -55.5t11.5 -41.5h229q27 0 39 -12q0 -10 1 -18.5t1 -18.5q0 -23 -10 -39q-10 -2 -22.5 -3t-24.5 -1h-127h-41q-18 0 -39 -2 q-14 -14 -13 -45t1 -49q0 -141 -1 -279.5t-1 -279.5q0 -45 14 -67.5t36.5 -34t53.5 -14.5t66 -9q8 -8 8 -23q0 -14 -10 -18l-3 -6q-14 -8 -38 -8q-39 0 -78 6t-78 6q-59 0 -118.5 -6t-119.5 -6q-10 0 -31.5 2t-21.5 18zM47 4q0 29 24.5 35t55.5 13t55.5 28.5t24.5 81.5v594 q0 27 -6 55q-49 6 -97 6q-16 0 -36.5 4t-20.5 27q0 8 1 19.5t5 19.5q6 10 25.5 14t43 7t47.5 5t36 9q6 80 7 159.5t21 157.5q18 78 56.5 148.5t92.5 124t125 83.5q66 29 144 29h11q43 0 87 -6t78.5 -23.5t57 -46t24.5 -71.5q2 -8 2 -16q0 -16 -9 -31q-13 -23 -35.5 -36.5 t-48 -15.5t-42.5 13q-12 8 -19 30.5t-26.5 44t-60.5 39t-121 17.5q-43 0 -74 -27t-51.5 -69t-32.5 -95t-18 -107.5t-8.5 -103.5t-2.5 -84v-28q0 -25 1.5 -55.5t11.5 -41.5h229q27 0 39 -12q0 -10 1 -18.5t1 -18.5q0 -23 -10 -39q-10 -2 -22.5 -3t-24.5 -1h-127h-41 q-18 0 -39 -2q-14 -14 -13 -45t1 -49q0 -141 -1 -279.5t-1 -279.5q0 -45 14 -67.5t36.5 -34t53.5 -14.5t66 -9q8 -8 8 -23q0 -14 -10 -18l-3 -6q-14 -8 -38 -8q-39 0 -78 6t-78 6q-59 0 -118.5 -6t-119.5 -6q-10 0 -31.5 2t-21.5 18z" />
</font>
</defs>
</svg>
